  0
SECTION
  2
HEADER
  9
$ACADVER
  1
AC1015
  9
$ACADMAINTVER
 70
    13
  9
$DWGCODEPAGE
  3
ANSI_1252
  9
$INSBASE
 10
0.0
 20
0.0
 30
0.0
  9
$EXTMIN
 10
-178.367928365029
 20
-0.0105316432865266
 30
-0.0015258207003583
  9
$EXTMAX
 10
93.48054250130894
 20
345.1377511773298
 30
0.0000000349246037
  9
$LIMMIN
 10
0.0
 20
0.0
  9
$LIMMAX
 10
420.0
 20
297.0
  9
$ORTHOMODE
 70
     1
  9
$REGENMODE
 70
     1
  9
$FILLMODE
 70
     1
  9
$QTEXTMODE
 70
     0
  9
$MIRRTEXT
 70
     1
  9
$LTSCALE
 40
1.0
  9
$ATTMODE
 70
     1
  9
$TEXTSIZE
 40
2.5
  9
$TRACEWID
 40
1.0
  9
$TEXTSTYLE
  7
Standard
  9
$CLAYER
  8
0
  9
$CELTYPE
  6
ByLayer
  9
$CECOLOR
 62
   256
  9
$CELTSCALE
 40
1.0
  9
$DISPSILH
 70
     0
  9
$DIMSCALE
 40
1.0
  9
$DIMASZ
 40
5.0
  9
$DIMEXO
 40
5.0
  9
$DIMDLI
 40
3.75
  9
$DIMRND
 40
0.0
  9
$DIMDLE
 40
0.0
  9
$DIMEXE
 40
2.0
  9
$DIMTP
 40
0.0
  9
$DIMTM
 40
0.0
  9
$DIMTXT
 40
3.0
  9
$DIMCEN
 40
2.5
  9
$DIMTSZ
 40
0.0
  9
$DIMTOL
 70
     0
  9
$DIMLIM
 70
     0
  9
$DIMTIH
 70
     0
  9
$DIMTOH
 70
     0
  9
$DIMSE1
 70
     0
  9
$DIMSE2
 70
     0
  9
$DIMTAD
 70
     0
  9
$DIMZIN
 70
     8
  9
$DIMBLK
  1

  9
$DIMASO
 70
     1
  9
$DIMSHO
 70
     1
  9
$DIMPOST
  1

  9
$DIMAPOST
  1

  9
$DIMALT
 70
     0
  9
$DIMALTD
 70
     3
  9
$DIMALTF
 40
0.03937007874016
  9
$DIMLFAC
 40
1.0
  9
$DIMTOFL
 70
     1
  9
$DIMTVP
 40
0.0
  9
$DIMTIX
 70
     0
  9
$DIMSOXD
 70
     0
  9
$DIMSAH
 70
     0
  9
$DIMBLK1
  1

  9
$DIMBLK2
  1

  9
$DIMSTYLE
  2
Copy of ISO-25
  9
$DIMCLRD
 70
     0
  9
$DIMCLRE
 70
     0
  9
$DIMCLRT
 70
     0
  9
$DIMTFAC
 40
1.0
  9
$DIMGAP
 40
10.0
  9
$DIMJUST
 70
     0
  9
$DIMSD1
 70
     0
  9
$DIMSD2
 70
     0
  9
$DIMTOLJ
 70
     0
  9
$DIMTZIN
 70
     8
  9
$DIMALTZ
 70
     0
  9
$DIMALTTZ
 70
     0
  9
$DIMUPT
 70
     0
  9
$DIMDEC
 70
     1
  9
$DIMTDEC
 70
     1
  9
$DIMALTU
 70
     2
  9
$DIMALTTD
 70
     3
  9
$DIMTXSTY
  7
Standard
  9
$DIMAUNIT
 70
     0
  9
$DIMADEC
 70
     0
  9
$DIMALTRND
 40
0.0
  9
$DIMAZIN
 70
     0
  9
$DIMDSEP
 70
    46
  9
$DIMATFIT
 70
     3
  9
$DIMFRAC
 70
     0
  9
$DIMLDRBLK
  1

  9
$DIMLUNIT
 70
     2
  9
$DIMLWD
 70
    -2
  9
$DIMLWE
 70
    -2
  9
$DIMTMOVE
 70
     0
  9
$LUNITS
 70
     2
  9
$LUPREC
 70
     4
  9
$SKETCHINC
 40
1.0
  9
$FILLETRAD
 40
10.0
  9
$AUNITS
 70
     0
  9
$AUPREC
 70
     0
  9
$MENU
  1
.
  9
$ELEVATION
 40
0.0
  9
$PELEVATION
 40
0.0
  9
$THICKNESS
 40
0.0
  9
$LIMCHECK
 70
     0
  9
$CHAMFERA
 40
10.0
  9
$CHAMFERB
 40
10.0
  9
$CHAMFERC
 40
20.0
  9
$CHAMFERD
 40
0.0
  9
$SKPOLY
 70
     0
  9
$TDCREATE
 40
2456260.941621944
  9
$TDUCREATE
 40
2456260.504121944
  9
$TDUPDATE
 40
2456261.948602917
  9
$TDUUPDATE
 40
2456261.511102916
  9
$TDINDWG
 40
0.0922239583
  9
$TDUSRTIMER
 40
0.0922235995
  9
$USRTIMER
 70
     1
  9
$ANGBASE
 50
0.0
  9
$ANGDIR
 70
     0
  9
$PDMODE
 70
     0
  9
$PDSIZE
 40
0.0
  9
$PLINEWID
 40
0.0
  9
$SPLFRAME
 70
     0
  9
$SPLINETYPE
 70
     6
  9
$SPLINESEGS
 70
     8
  9
$HANDSEED
  5
6A0
  9
$SURFTAB1
 70
     6
  9
$SURFTAB2
 70
     6
  9
$SURFTYPE
 70
     6
  9
$SURFU
 70
     6
  9
$SURFV
 70
     6
  9
$UCSBASE
  2

  9
$UCSNAME
  2

  9
$UCSORG
 10
0.0
 20
0.0
 30
0.0
  9
$UCSXDIR
 10
1.0
 20
0.0
 30
0.0
  9
$UCSYDIR
 10
0.0
 20
1.0
 30
0.0
  9
$UCSORTHOREF
  2

  9
$UCSORTHOVIEW
 70
     0
  9
$UCSORGTOP
 10
0.0
 20
0.0
 30
0.0
  9
$UCSORGBOTTOM
 10
0.0
 20
0.0
 30
0.0
  9
$UCSORGLEFT
 10
0.0
 20
0.0
 30
0.0
  9
$UCSORGRIGHT
 10
0.0
 20
0.0
 30
0.0
  9
$UCSORGFRONT
 10
0.0
 20
0.0
 30
0.0
  9
$UCSORGBACK
 10
0.0
 20
0.0
 30
0.0
  9
$PUCSBASE
  2

  9
$PUCSNAME
  2

  9
$PUCSORG
 10
0.0
 20
0.0
 30
0.0
  9
$PUCSXDIR
 10
1.0
 20
0.0
 30
0.0
  9
$PUCSYDIR
 10
0.0
 20
1.0
 30
0.0
  9
$PUCSORTHOREF
  2

  9
$PUCSORTHOVIEW
 70
     0
  9
$PUCSORGTOP
 10
0.0
 20
0.0
 30
0.0
  9
$PUCSORGBOTTOM
 10
0.0
 20
0.0
 30
0.0
  9
$PUCSORGLEFT
 10
0.0
 20
0.0
 30
0.0
  9
$PUCSORGRIGHT
 10
0.0
 20
0.0
 30
0.0
  9
$PUCSORGFRONT
 10
0.0
 20
0.0
 30
0.0
  9
$PUCSORGBACK
 10
0.0
 20
0.0
 30
0.0
  9
$USERI1
 70
     0
  9
$USERI2
 70
     0
  9
$USERI3
 70
     0
  9
$USERI4
 70
     0
  9
$USERI5
 70
     0
  9
$USERR1
 40
0.0
  9
$USERR2
 40
0.0
  9
$USERR3
 40
0.0
  9
$USERR4
 40
0.0
  9
$USERR5
 40
0.0
  9
$WORLDVIEW
 70
     1
  9
$SHADEDGE
 70
     3
  9
$SHADEDIF
 70
    70
  9
$TILEMODE
 70
     1
  9
$MAXACTVP
 70
    64
  9
$PINSBASE
 10
0.0
 20
0.0
 30
0.0
  9
$PLIMCHECK
 70
     0
  9
$PEXTMIN
 10
1.000000000000000E+20
 20
1.000000000000000E+20
 30
1.000000000000000E+20
  9
$PEXTMAX
 10
-1.000000000000000E+20
 20
-1.000000000000000E+20
 30
-1.000000000000000E+20
  9
$PLIMMIN
 10
0.0
 20
0.0
  9
$PLIMMAX
 10
420.0
 20
297.0
  9
$UNITMODE
 70
     0
  9
$VISRETAIN
 70
     1
  9
$PLINEGEN
 70
     0
  9
$PSLTSCALE
 70
     1
  9
$TREEDEPTH
 70
  3020
  9
$CMLSTYLE
  2
Standard
  9
$CMLJUST
 70
     0
  9
$CMLSCALE
 40
20.0
  9
$PROXYGRAPHICS
 70
     1
  9
$MEASUREMENT
 70
     1
  9
$CELWEIGHT
370
    -1
  9
$ENDCAPS
280
     0
  9
$JOINSTYLE
280
     0
  9
$LWDISPLAY
290
     0
  9
$INSUNITS
 70
     4
  9
$HYPERLINKBASE
  1

  9
$STYLESHEET
  1

  9
$XEDIT
290
     1
  9
$CEPSNTYPE
380
     0
  9
$PSTYLEMODE
290
     1
  9
$FINGERPRINTGUID
  2
{52878EA4-82BC-4E67-B72A-FA1EFA60E85D}
  9
$VERSIONGUID
  2
{DE2FAC7B-216C-4D5C-8893-282DB81335E6}
  9
$EXTNAMES
290
     1
  9
$PSVPSCALE
 40
0.0
  9
$OLESTARTUP
290
     0
  0
ENDSEC
  0
SECTION
  2
CLASSES
  0
CLASS
  1
ACDBDICTIONARYWDFLT
  2
AcDbDictionaryWithDefault
  3
AutoCAD 2000
 90
        0
280
     0
281
     0
  0
CLASS
  1
ACDBPLACEHOLDER
  2
AcDbPlaceHolder
  3
AutoCAD 2000
 90
        0
280
     0
281
     0
  0
CLASS
  1
LAYOUT
  2
AcDbLayout
  3
AutoCAD 2000
 90
        0
280
     0
281
     0
  0
CLASS
  1
DIMASSOC
  2
AcDbDimAssoc
  3
"AcDbDimAssoc|Product Desc:     AcDim ARX App For Dimension|Company:          Autodesk, Inc.|WEB Address:      www.autodesk.com"
 90
        0
280
     0
281
     0
  0
CLASS
  1
DICTIONARYVAR
  2
AcDbDictionaryVar
  3
AutoCAD 2000
 90
        0
280
     0
281
     0
  0
ENDSEC
  0
SECTION
  2
TABLES
  0
TABLE
  2
VPORT
  5
8
330
0
100
AcDbSymbolTable
 70
     2
  0
VPORT
  5
69F
330
8
100
AcDbSymbolTableRecord
100
AcDbViewportTableRecord
  2
*Active
 70
     0
 10
0.0
 20
0.0
 11
1.0
 21
1.0
 12
5.271117432572282
 22
110.5906656356767
 13
0.0
 23
0.0
 14
10.0
 24
10.0
 15
10.0
 25
10.0
 16
0.0
 26
0.0
 36
1.0
 17
0.0
 27
0.0
 37
0.0
 40
657.1279670713916
 41
2.424812030075187
 42
50.0
 43
0.0
 44
0.0
 50
0.0
 51
0.0
 71
     0
 72
   100
 73
     1
 74
     3
 75
     0
 76
     0
 77
     0
 78
     0
281
     0
 65
     1
110
0.0
120
0.0
130
0.0
111
1.0
121
0.0
131
0.0
112
0.0
122
1.0
132
0.0
 79
     0
146
0.0
  0
ENDTAB
  0
TABLE
  2
LTYPE
  5
5
330
0
100
AcDbSymbolTable
 70
     2
  0
LTYPE
  5
14
330
5
100
AcDbSymbolTableRecord
100
AcDbLinetypeTableRecord
  2
ByBlock
 70
     0
  3

 72
    65
 73
     0
 40
0.0
  0
LTYPE
  5
15
330
5
100
AcDbSymbolTableRecord
100
AcDbLinetypeTableRecord
  2
ByLayer
 70
     0
  3

 72
    65
 73
     0
 40
0.0
  0
LTYPE
  5
16
330
5
100
AcDbSymbolTableRecord
100
AcDbLinetypeTableRecord
  2
Continuous
 70
     0
  3
Solid line
 72
    65
 73
     0
 40
0.0
  0
LTYPE
  5
696
330
5
100
AcDbSymbolTableRecord
100
AcDbLinetypeTableRecord
  2
CENTER
 70
     0
  3
Center ____ _ ____ _ ____ _ ____ _ ____ _ ____
 72
    65
 73
     4
 40
50.8
 49
31.75
 74
     0
 49
-6.349999999999999
 74
     0
 49
6.349999999999999
 74
     0
 49
-6.349999999999999
 74
     0
  0
ENDTAB
  0
TABLE
  2
LAYER
  5
2
330
0
100
AcDbSymbolTable
 70
     5
  0
LAYER
  5
10
330
2
100
AcDbSymbolTableRecord
100
AcDbLayerTableRecord
  2
0
 70
     0
 62
     7
  6
Continuous
370
    -3
390
F
  0
LAYER
  5
5F
330
2
100
AcDbSymbolTableRecord
100
AcDbLayerTableRecord
  2
Defpoints
 70
     0
 62
     7
  6
Continuous
290
     0
370
    -3
390
F
  0
LAYER
  5
7B
330
2
100
AcDbSymbolTableRecord
100
AcDbLayerTableRecord
  2
Deck profile
 70
     1
 62
    -7
  6
Continuous
370
    -3
390
F
  0
LAYER
  5
107
330
2
100
AcDbSymbolTableRecord
100
AcDbLayerTableRecord
  2
Dimensions
 70
     0
 62
     7
  6
Continuous
370
    -3
390
F
  0
LAYER
  5
697
330
2
100
AcDbSymbolTableRecord
100
AcDbLayerTableRecord
  2
Centre line
 70
     0
 62
     7
  6
Continuous
370
    -3
390
F
  0
ENDTAB
  0
TABLE
  2
STYLE
  5
3
330
0
100
AcDbSymbolTable
 70
     2
  0
STYLE
  5
11
330
3
100
AcDbSymbolTableRecord
100
AcDbTextStyleTableRecord
  2
Standard
 70
     0
 40
0.0
 41
1.0
 50
0.0
 71
     0
 42
2.5
  3
txt
  4

  0
STYLE
  5
695
330
3
100
AcDbSymbolTableRecord
100
AcDbTextStyleTableRecord
  2

 70
     1
 40
0.0
 41
1.0
 50
0.0
 71
     0
 42
2.5
  3
ltypeshp.shx
  4

  0
ENDTAB
  0
TABLE
  2
VIEW
  5
6
330
0
100
AcDbSymbolTable
 70
     0
  0
ENDTAB
  0
TABLE
  2
UCS
  5
7
330
0
100
AcDbSymbolTable
 70
     0
  0
ENDTAB
  0
TABLE
  2
APPID
  5
9
330
0
100
AcDbSymbolTable
 70
     1
  0
APPID
  5
12
330
9
100
AcDbSymbolTableRecord
100
AcDbRegAppTableRecord
  2
ACAD
 70
     0
  0
ENDTAB
  0
TABLE
  2
DIMSTYLE
  5
A
330
0
100
AcDbSymbolTable
 70
     2
100
AcDbDimStyleTable
 71
     2
340
108
340
27
  0
DIMSTYLE
105
27
102
{ACAD_REACTORS
330
E5
102
}
330
A
100
AcDbSymbolTableRecord
100
AcDbDimStyleTableRecord
  2
ISO-25
 70
     0
 41
2.5
 42
0.625
 43
3.75
 44
1.25
 73
     0
 74
     0
 77
     1
 78
     8
140
2.5
141
2.5
143
0.03937007874016
147
0.625
171
     3
172
     1
271
     2
272
     2
274
     3
278
    44
283
     0
284
     8
340
11
  0
DIMSTYLE
105
108
102
{ACAD_REACTORS
330
109
330
135
330
14F
330
169
330
183
330
19D
330
204
330
394
330
3A2
330
3B0
330
3BE
330
3CC
330
5E
330
502
102
}
330
A
100
AcDbSymbolTableRecord
100
AcDbDimStyleTableRecord
  2
Copy of ISO-25
 70
     0
 41
5.0
 42
5.0
 43
3.75
 44
2.0
 73
     0
 74
     0
 78
     8
140
3.0
141
2.5
143
0.03937007874016
147
10.0
171
     3
172
     1
271
     1
272
     1
274
     3
283
     0
284
     8
340
11
  0
ENDTAB
  0
TABLE
  2
BLOCK_RECORD
  5
1
330
0
100
AcDbSymbolTable
 70
    15
  0
BLOCK_RECORD
  5
1F
330
1
100
AcDbSymbolTableRecord
100
AcDbBlockTableRecord
  2
*Model_Space
340
22
  0
BLOCK_RECORD
  5
1B
330
1
100
AcDbSymbolTableRecord
100
AcDbBlockTableRecord
  2
*Paper_Space
340
1E
  0
BLOCK_RECORD
  5
23
330
1
100
AcDbSymbolTableRecord
100
AcDbBlockTableRecord
  2
*Paper_Space0
340
26
  0
BLOCK_RECORD
  5
60
330
1
100
AcDbSymbolTableRecord
100
AcDbBlockTableRecord
  2
*D1
340
0
  0
BLOCK_RECORD
  5
E6
330
1
100
AcDbSymbolTableRecord
100
AcDbBlockTableRecord
  2
*D2
340
0
  0
BLOCK_RECORD
  5
10A
330
1
100
AcDbSymbolTableRecord
100
AcDbBlockTableRecord
  2
*D3
340
0
  0
BLOCK_RECORD
  5
136
330
1
100
AcDbSymbolTableRecord
100
AcDbBlockTableRecord
  2
*D4
340
0
  0
BLOCK_RECORD
  5
150
330
1
100
AcDbSymbolTableRecord
100
AcDbBlockTableRecord
  2
*D5
340
0
  0
BLOCK_RECORD
  5
16A
330
1
100
AcDbSymbolTableRecord
100
AcDbBlockTableRecord
  2
*D6
340
0
  0
BLOCK_RECORD
  5
184
330
1
100
AcDbSymbolTableRecord
100
AcDbBlockTableRecord
  2
*D7
340
0
  0
BLOCK_RECORD
  5
19E
330
1
100
AcDbSymbolTableRecord
100
AcDbBlockTableRecord
  2
*D8
340
0
  0
BLOCK_RECORD
  5
205
330
1
100
AcDbSymbolTableRecord
100
AcDbBlockTableRecord
  2
*D9
340
0
  0
BLOCK_RECORD
  5
395
330
1
100
AcDbSymbolTableRecord
100
AcDbBlockTableRecord
  2
*D10
340
0
  0
BLOCK_RECORD
  5
3A3
330
1
100
AcDbSymbolTableRecord
100
AcDbBlockTableRecord
  2
*D11
340
0
  0
BLOCK_RECORD
  5
3B1
330
1
100
AcDbSymbolTableRecord
100
AcDbBlockTableRecord
  2
*D12
340
0
  0
BLOCK_RECORD
  5
3BF
330
1
100
AcDbSymbolTableRecord
100
AcDbBlockTableRecord
  2
*D13
340
0
  0
BLOCK_RECORD
  5
3CD
330
1
100
AcDbSymbolTableRecord
100
AcDbBlockTableRecord
  2
*D14
340
0
  0
ENDTAB
  0
ENDSEC
  0
SECTION
  2
BLOCKS
  0
BLOCK
  5
20
330
1F
100
AcDbEntity
  8
0
100
AcDbBlockBegin
  2
*Model_Space
 70
     0
 10
0.0
 20
0.0
 30
0.0
  3
*Model_Space
  1

  0
ENDBLK
  5
21
330
1F
100
AcDbEntity
  8
0
100
AcDbBlockEnd
  0
BLOCK
  5
1C
330
1B
100
AcDbEntity
 67
     1
  8
0
100
AcDbBlockBegin
  2
*Paper_Space
 70
     0
 10
0.0
 20
0.0
 30
0.0
  3
*Paper_Space
  1

  0
ENDBLK
  5
1D
330
1B
100
AcDbEntity
 67
     1
  8
0
100
AcDbBlockEnd
  0
BLOCK
  5
24
330
23
100
AcDbEntity
  8
0
100
AcDbBlockBegin
  2
*Paper_Space0
 70
     0
 10
0.0
 20
0.0
 30
0.0
  3
*Paper_Space0
  1

  0
ENDBLK
  5
25
330
23
100
AcDbEntity
  8
0
100
AcDbBlockEnd
  0
BLOCK
  5
6A
330
60
100
AcDbEntity
  8
0
100
AcDbBlockBegin
  2
*D1
 70
     1
 10
0.0
 20
0.0
 30
0.0
  3
*D1
  1

  0
LINE
  5
68A
330
60
100
AcDbEntity
  8
Dimensions
 62
     0
370
    -2
100
AcDbLine
 10
5.0
 20
283.0
 30
0.0
 11
93.45789680100192
 21
283.0
 31
0.0
  0
LINE
  5
68B
330
60
100
AcDbEntity
  8
Dimensions
 62
     0
370
    -2
100
AcDbLine
 10
5.000000000000021
 20
-0.0000000000000057
 30
0.0
 11
93.45789680100187
 21
-0.0000000000000308
 31
0.0
  0
LINE
  5
68C
330
60
100
AcDbEntity
  8
Dimensions
 62
     0
370
    -2
100
AcDbLine
 10
91.45789680100191
 20
278.0
 30
0.0
 11
91.4578968010019
 21
155.7103287980628
 31
0.0
  0
LINE
  5
68D
330
60
100
AcDbEntity
  8
Dimensions
 62
     0
370
    -2
100
AcDbLine
 10
91.45789680100186
 20
4.999999999999969
 30
0.0
 11
91.4578968010019
 21
127.7103287980628
 31
0.0
  0
SOLID
  5
68E
330
60
100
AcDbEntity
  8
Dimensions
 62
     0
100
AcDbTrace
 10
90.62456346766859
 20
278.0
 30
0.0
 11
92.29123013433525
 21
278.0
 31
0.0
 12
91.45789680100191
 22
283.0
 32
0.0
 13
91.45789680100191
 23
283.0
 33
0.0
  0
SOLID
  5
68F
330
60
100
AcDbEntity
  8
Dimensions
 62
     0
100
AcDbTrace
 10
90.62456346766854
 20
4.999999999999969
 30
0.0
 11
92.2912301343352
 21
4.999999999999969
 31
0.0
 12
91.45789680100186
 22
-0.0000000000000302
 32
0.0
 13
91.45789680100186
 23
-0.0000000000000302
 33
0.0
  0
MTEXT
  5
690
330
60
100
AcDbEntity
  8
Dimensions
 62
     0
100
AcDbMText
 10
91.45789680100188
 20
141.7103287980628
 30
0.0
 40
3.0
 41
0.0
 71
     5
 72
     1
  1
283
 11
0.0000000000000001
 21
1.0
 31
0.0
 73
     1
 44
1.0
  0
POINT
  5
691
330
60
100
AcDbEntity
  8
Defpoints
 62
     0
100
AcDbPoint
 10
0.0
 20
283.0
 30
0.0
  0
POINT
  5
692
330
60
100
AcDbEntity
  8
Defpoints
 62
     0
100
AcDbPoint
 10
0.0000000000000213
 20
-0.0000000000000043
 30
0.0
  0
POINT
  5
693
330
60
100
AcDbEntity
  8
Defpoints
 62
     0
100
AcDbPoint
 10
91.45789680100186
 20
-0.0000000000000302
 30
0.0
  0
ENDBLK
  5
6B
330
60
100
AcDbEntity
  8
0
100
AcDbBlockEnd
  0
BLOCK
  5
F0
330
E6
100
AcDbEntity
  8
0
100
AcDbBlockBegin
  2
*D2
 70
     1
 10
0.0
 20
0.0
 30
0.0
  3
*D2
  1

  0
LINE
  5
F3
330
E6
100
AcDbEntity
  8
Deck profile
 62
     0
370
    -2
100
AcDbLine
 10
0.625
 20
283.0
 30
0.0
 11
24.07584842464371
 21
283.0
 31
0.0
  0
LINE
  5
F4
330
E6
100
AcDbEntity
  8
Deck profile
 62
     0
370
    -2
100
AcDbLine
 10
0.625
 20
267.0
 30
0.0
 11
24.07584842464371
 21
267.0
 31
0.0
  0
LINE
  5
F5
330
E6
100
AcDbEntity
  8
Deck profile
 62
     0
370
    -2
100
AcDbLine
 10
22.82584842464371
 20
280.5
 30
0.0
 11
22.82584842464371
 21
269.4999999999999
 31
0.0
  0
SOLID
  5
F6
330
E6
100
AcDbEntity
  8
Deck profile
 62
     0
100
AcDbTrace
 10
22.40918175797704
 20
280.5
 30
0.0
 11
23.24251509131038
 21
280.5
 31
0.0
 12
22.82584842464371
 22
283.0
 32
0.0
 13
22.82584842464371
 23
283.0
 33
0.0
  0
SOLID
  5
F7
330
E6
100
AcDbEntity
  8
Deck profile
 62
     0
100
AcDbTrace
 10
22.40918175797704
 20
269.4999999999999
 30
0.0
 11
23.24251509131037
 21
269.4999999999999
 31
0.0
 12
22.82584842464371
 22
267.0
 32
0.0
 13
22.82584842464371
 23
267.0
 33
0.0
  0
MTEXT
  5
F8
330
E6
100
AcDbEntity
  8
Deck profile
 62
     0
100
AcDbMText
 10
20.95084842464366
 20
275.0
 30
0.0
 40
2.5
 41
0.0
 71
     5
 72
     1
  1
16
 11
0.0000000000000001
 21
1.0
 31
0.0
 73
     1
 44
1.0
  0
POINT
  5
F9
330
E6
100
AcDbEntity
  8
Defpoints
 62
     0
100
AcDbPoint
 10
0.0
 20
283.0
 30
0.0
  0
POINT
  5
FA
330
E6
100
AcDbEntity
  8
Defpoints
 62
     0
100
AcDbPoint
 10
0.0
 20
267.0
 30
0.0
  0
POINT
  5
FB
330
E6
100
AcDbEntity
  8
Defpoints
 62
     0
100
AcDbPoint
 10
22.82584842464371
 20
267.0
 30
0.0
  0
ENDBLK
  5
F1
330
E6
100
AcDbEntity
  8
0
100
AcDbBlockEnd
  0
BLOCK
  5
114
330
10A
100
AcDbEntity
  8
0
100
AcDbBlockBegin
  2
*D3
 70
     1
 10
0.0
 20
0.0
 30
0.0
  3
*D3
  1

  0
LINE
  5
611
330
10A
100
AcDbEntity
  8
Dimensions
 62
     0
370
    -2
100
AcDbLine
 10
0.0000000000000003
 20
272.0
 30
0.0
 11
0.0000000000000001
 21
269.0
 31
0.0
  0
LINE
  5
612
330
10A
100
AcDbEntity
  8
Dimensions
 62
     0
370
    -2
100
AcDbLine
 10
-158.9999999999999
 20
272.0
 30
0.0
 11
-158.9999999999999
 21
269.0
 31
0.0
  0
LINE
  5
613
330
10A
100
AcDbEntity
  8
Dimensions
 62
     0
370
    -2
100
AcDbLine
 10
-5.0
 20
267.0
 30
0.0
 11
-65.99999999999998
 21
267.0
 31
0.0
  0
LINE
  5
614
330
10A
100
AcDbEntity
  8
Dimensions
 62
     0
370
    -2
100
AcDbLine
 10
-153.9999999999999
 20
267.0
 30
0.0
 11
-92.99999999999998
 21
267.0
 31
0.0
  0
SOLID
  5
615
330
10A
100
AcDbEntity
  8
Dimensions
 62
     0
100
AcDbTrace
 10
-5.0
 20
267.8333333333333
 30
0.0
 11
-5.0
 21
266.1666666666667
 31
0.0
 12
0.0
 22
267.0
 32
0.0
 13
0.0
 23
267.0
 33
0.0
  0
SOLID
  5
616
330
10A
100
AcDbEntity
  8
Dimensions
 62
     0
100
AcDbTrace
 10
-153.9999999999999
 20
267.8333333333333
 30
0.0
 11
-153.9999999999999
 21
266.1666666666667
 31
0.0
 12
-158.9999999999999
 22
267.0
 32
0.0
 13
-158.9999999999999
 23
267.0
 33
0.0
  0
MTEXT
  5
617
330
10A
100
AcDbEntity
  8
Dimensions
 62
     0
100
AcDbMText
 10
-79.49999999999999
 20
267.0
 30
0.0
 40
3.0
 41
0.0
 71
     5
 72
     1
  1
159
 73
     1
 44
1.0
  0
POINT
  5
618
330
10A
100
AcDbEntity
  8
Defpoints
 62
     0
100
AcDbPoint
 10
0.0
 20
267.0
 30
0.0
  0
POINT
  5
619
330
10A
100
AcDbEntity
  8
Defpoints
 62
     0
100
AcDbPoint
 10
-158.9999999999999
 20
267.0
 30
0.0
  0
POINT
  5
61A
330
10A
100
AcDbEntity
  8
Defpoints
 62
     0
100
AcDbPoint
 10
-158.9999999999999
 20
267.0
 30
0.0
  0
ENDBLK
  5
115
330
10A
100
AcDbEntity
  8
0
100
AcDbBlockEnd
  0
BLOCK
  5
141
330
136
100
AcDbEntity
  8
0
100
AcDbBlockBegin
  2
*D4
 70
     1
 10
0.0
 20
0.0
 30
0.0
  3
*D4
  1

  0
LINE
  5
61B
330
136
100
AcDbEntity
  8
Dimensions
 62
     0
370
    -2
100
AcDbLine
 10
0.0000000000000003
 20
222.0
 30
0.0
 11
0.0000000000000001
 21
219.0
 31
0.0
  0
LINE
  5
61C
330
136
100
AcDbEntity
  8
Dimensions
 62
     0
370
    -2
100
AcDbLine
 10
-158.0
 20
222.0
 30
0.0
 11
-158.0
 21
219.0
 31
0.0
  0
LINE
  5
61D
330
136
100
AcDbEntity
  8
Dimensions
 62
     0
370
    -2
100
AcDbLine
 10
-5.0
 20
217.0
 30
0.0
 11
-65.5
 21
217.0
 31
0.0
  0
LINE
  5
61E
330
136
100
AcDbEntity
  8
Dimensions
 62
     0
370
    -2
100
AcDbLine
 10
-153.0
 20
217.0
 30
0.0
 11
-92.5
 21
217.0
 31
0.0
  0
SOLID
  5
61F
330
136
100
AcDbEntity
  8
Dimensions
 62
     0
100
AcDbTrace
 10
-5.0
 20
217.8333333333333
 30
0.0
 11
-5.0
 21
216.1666666666666
 31
0.0
 12
0.0
 22
217.0
 32
0.0
 13
0.0
 23
217.0
 33
0.0
  0
SOLID
  5
620
330
136
100
AcDbEntity
  8
Dimensions
 62
     0
100
AcDbTrace
 10
-153.0
 20
217.8333333333333
 30
0.0
 11
-153.0
 21
216.1666666666666
 31
0.0
 12
-158.0
 22
217.0
 32
0.0
 13
-158.0
 23
217.0
 33
0.0
  0
MTEXT
  5
621
330
136
100
AcDbEntity
  8
Dimensions
 62
     0
100
AcDbMText
 10
-79.0
 20
217.0
 30
0.0
 40
3.0
 41
0.0
 71
     5
 72
     1
  1
158
 73
     1
 44
1.0
  0
POINT
  5
622
330
136
100
AcDbEntity
  8
Defpoints
 62
     0
100
AcDbPoint
 10
0.0
 20
217.0
 30
0.0
  0
POINT
  5
623
330
136
100
AcDbEntity
  8
Defpoints
 62
     0
100
AcDbPoint
 10
-158.0
 20
217.0
 30
0.0
  0
POINT
  5
624
330
136
100
AcDbEntity
  8
Defpoints
 62
     0
100
AcDbPoint
 10
-158.0
 20
217.0
 30
0.0
  0
ENDBLK
  5
142
330
136
100
AcDbEntity
  8
0
100
AcDbBlockEnd
  0
BLOCK
  5
15B
330
150
100
AcDbEntity
  8
0
100
AcDbBlockBegin
  2
*D5
 70
     1
 10
0.0
 20
0.0
 30
0.0
  3
*D5
  1

  0
LINE
  5
625
330
150
100
AcDbEntity
  8
Dimensions
 62
     0
370
    -2
100
AcDbLine
 10
0.0000000000000003
 20
172.0
 30
0.0
 11
0.0000000000000001
 21
169.0
 31
0.0
  0
LINE
  5
626
330
150
100
AcDbEntity
  8
Dimensions
 62
     0
370
    -2
100
AcDbLine
 10
-156.0
 20
172.0
 30
0.0
 11
-156.0
 21
169.0
 31
0.0
  0
LINE
  5
627
330
150
100
AcDbEntity
  8
Dimensions
 62
     0
370
    -2
100
AcDbLine
 10
-5.0
 20
167.0
 30
0.0
 11
-64.5
 21
167.0
 31
0.0
  0
LINE
  5
628
330
150
100
AcDbEntity
  8
Dimensions
 62
     0
370
    -2
100
AcDbLine
 10
-151.0
 20
167.0
 30
0.0
 11
-91.5
 21
167.0
 31
0.0
  0
SOLID
  5
629
330
150
100
AcDbEntity
  8
Dimensions
 62
     0
100
AcDbTrace
 10
-5.0
 20
167.8333333333333
 30
0.0
 11
-5.0
 21
166.1666666666666
 31
0.0
 12
0.0
 22
167.0
 32
0.0
 13
0.0
 23
167.0
 33
0.0
  0
SOLID
  5
62A
330
150
100
AcDbEntity
  8
Dimensions
 62
     0
100
AcDbTrace
 10
-151.0
 20
167.8333333333333
 30
0.0
 11
-151.0
 21
166.1666666666666
 31
0.0
 12
-156.0
 22
167.0
 32
0.0
 13
-156.0
 23
167.0
 33
0.0
  0
MTEXT
  5
62B
330
150
100
AcDbEntity
  8
Dimensions
 62
     0
100
AcDbMText
 10
-78.0
 20
167.0
 30
0.0
 40
3.0
 41
0.0
 71
     5
 72
     1
  1
156
 73
     1
 44
1.0
  0
POINT
  5
62C
330
150
100
AcDbEntity
  8
Defpoints
 62
     0
100
AcDbPoint
 10
0.0
 20
167.0
 30
0.0
  0
POINT
  5
62D
330
150
100
AcDbEntity
  8
Defpoints
 62
     0
100
AcDbPoint
 10
-156.0
 20
167.0
 30
0.0
  0
POINT
  5
62E
330
150
100
AcDbEntity
  8
Defpoints
 62
     0
100
AcDbPoint
 10
-156.0
 20
167.0
 30
0.0
  0
ENDBLK
  5
15C
330
150
100
AcDbEntity
  8
0
100
AcDbBlockEnd
  0
BLOCK
  5
175
330
16A
100
AcDbEntity
  8
0
100
AcDbBlockBegin
  2
*D6
 70
     1
 10
0.0
 20
0.0
 30
0.0
  3
*D6
  1

  0
LINE
  5
62F
330
16A
100
AcDbEntity
  8
Dimensions
 62
     0
370
    -2
100
AcDbLine
 10
0.0000000000000003
 20
122.0
 30
0.0
 11
0.0000000000000001
 21
119.0
 31
0.0
  0
LINE
  5
630
330
16A
100
AcDbEntity
  8
Dimensions
 62
     0
370
    -2
100
AcDbLine
 10
-147.0
 20
122.0
 30
0.0
 11
-147.0
 21
119.0
 31
0.0
  0
LINE
  5
631
330
16A
100
AcDbEntity
  8
Dimensions
 62
     0
370
    -2
100
AcDbLine
 10
-5.0
 20
117.0
 30
0.0
 11
-60.0
 21
117.0
 31
0.0
  0
LINE
  5
632
330
16A
100
AcDbEntity
  8
Dimensions
 62
     0
370
    -2
100
AcDbLine
 10
-142.0
 20
117.0
 30
0.0
 11
-87.0
 21
117.0
 31
0.0
  0
SOLID
  5
633
330
16A
100
AcDbEntity
  8
Dimensions
 62
     0
100
AcDbTrace
 10
-5.0
 20
117.8333333333333
 30
0.0
 11
-5.0
 21
116.1666666666666
 31
0.0
 12
0.0
 22
117.0
 32
0.0
 13
0.0
 23
117.0
 33
0.0
  0
SOLID
  5
634
330
16A
100
AcDbEntity
  8
Dimensions
 62
     0
100
AcDbTrace
 10
-142.0
 20
117.8333333333333
 30
0.0
 11
-142.0
 21
116.1666666666666
 31
0.0
 12
-147.0
 22
117.0
 32
0.0
 13
-147.0
 23
117.0
 33
0.0
  0
MTEXT
  5
635
330
16A
100
AcDbEntity
  8
Dimensions
 62
     0
100
AcDbMText
 10
-73.5
 20
117.0
 30
0.0
 40
3.0
 41
0.0
 71
     5
 72
     1
  1
147
 73
     1
 44
1.0
  0
POINT
  5
636
330
16A
100
AcDbEntity
  8
Defpoints
 62
     0
100
AcDbPoint
 10
0.0
 20
117.0
 30
0.0
  0
POINT
  5
637
330
16A
100
AcDbEntity
  8
Defpoints
 62
     0
100
AcDbPoint
 10
-147.0
 20
117.0
 30
0.0
  0
POINT
  5
638
330
16A
100
AcDbEntity
  8
Defpoints
 62
     0
100
AcDbPoint
 10
-147.0
 20
117.0
 30
0.0
  0
ENDBLK
  5
176
330
16A
100
AcDbEntity
  8
0
100
AcDbBlockEnd
  0
BLOCK
  5
18F
330
184
100
AcDbEntity
  8
0
100
AcDbBlockBegin
  2
*D7
 70
     1
 10
0.0
 20
0.0
 30
0.0
  3
*D7
  1

  0
LINE
  5
639
330
184
100
AcDbEntity
  8
Dimensions
 62
     0
370
    -2
100
AcDbLine
 10
0.0000000000000003
 20
72.0
 30
0.0
 11
0.0000000000000001
 21
69.0
 31
0.0
  0
LINE
  5
63A
330
184
100
AcDbEntity
  8
Dimensions
 62
     0
370
    -2
100
AcDbLine
 10
-129.0
 20
72.0
 30
0.0
 11
-129.0
 21
69.0
 31
0.0
  0
LINE
  5
63B
330
184
100
AcDbEntity
  8
Dimensions
 62
     0
370
    -2
100
AcDbLine
 10
-5.0
 20
67.0
 30
0.0
 11
-51.0
 21
67.0
 31
0.0
  0
LINE
  5
63C
330
184
100
AcDbEntity
  8
Dimensions
 62
     0
370
    -2
100
AcDbLine
 10
-124.0
 20
67.0
 30
0.0
 11
-78.0
 21
67.0
 31
0.0
  0
SOLID
  5
63D
330
184
100
AcDbEntity
  8
Dimensions
 62
     0
100
AcDbTrace
 10
-5.0
 20
67.83333333333333
 30
0.0
 11
-5.0
 21
66.16666666666667
 31
0.0
 12
0.0
 22
67.0
 32
0.0
 13
0.0
 23
67.0
 33
0.0
  0
SOLID
  5
63E
330
184
100
AcDbEntity
  8
Dimensions
 62
     0
100
AcDbTrace
 10
-124.0
 20
67.83333333333333
 30
0.0
 11
-124.0
 21
66.16666666666667
 31
0.0
 12
-129.0
 22
67.0
 32
0.0
 13
-129.0
 23
67.0
 33
0.0
  0
MTEXT
  5
63F
330
184
100
AcDbEntity
  8
Dimensions
 62
     0
100
AcDbMText
 10
-64.5
 20
67.0
 30
0.0
 40
3.0
 41
0.0
 71
     5
 72
     1
  1
129
 73
     1
 44
1.0
  0
POINT
  5
640
330
184
100
AcDbEntity
  8
Defpoints
 62
     0
100
AcDbPoint
 10
0.0
 20
67.0
 30
0.0
  0
POINT
  5
641
330
184
100
AcDbEntity
  8
Defpoints
 62
     0
100
AcDbPoint
 10
-129.0
 20
67.0
 30
0.0
  0
POINT
  5
642
330
184
100
AcDbEntity
  8
Defpoints
 62
     0
100
AcDbPoint
 10
-129.0
 20
67.0
 30
0.0
  0
ENDBLK
  5
190
330
184
100
AcDbEntity
  8
0
100
AcDbBlockEnd
  0
BLOCK
  5
1A9
330
19E
100
AcDbEntity
  8
0
100
AcDbBlockBegin
  2
*D8
 70
     1
 10
0.0
 20
0.0
 30
0.0
  3
*D8
  1

  0
LINE
  5
643
330
19E
100
AcDbEntity
  8
Dimensions
 62
     0
370
    -2
100
AcDbLine
 10
0.0000000000000003
 20
22.0
 30
0.0
 11
0.0000000000000001
 21
19.0
 31
0.0
  0
LINE
  5
644
330
19E
100
AcDbEntity
  8
Dimensions
 62
     0
370
    -2
100
AcDbLine
 10
-80.0
 20
22.0
 30
0.0
 11
-80.0
 21
19.0
 31
0.0
  0
LINE
  5
645
330
19E
100
AcDbEntity
  8
Dimensions
 62
     0
370
    -2
100
AcDbLine
 10
-5.0
 20
17.0
 30
0.0
 11
-27.75
 21
17.0
 31
0.0
  0
LINE
  5
646
330
19E
100
AcDbEntity
  8
Dimensions
 62
     0
370
    -2
100
AcDbLine
 10
-75.0
 20
17.0
 30
0.0
 11
-52.25
 21
17.0
 31
0.0
  0
SOLID
  5
647
330
19E
100
AcDbEntity
  8
Dimensions
 62
     0
100
AcDbTrace
 10
-5.0
 20
17.83333333333333
 30
0.0
 11
-5.0
 21
16.16666666666666
 31
0.0
 12
0.0
 22
17.0
 32
0.0
 13
0.0
 23
17.0
 33
0.0
  0
SOLID
  5
648
330
19E
100
AcDbEntity
  8
Dimensions
 62
     0
100
AcDbTrace
 10
-75.0
 20
17.83333333333333
 30
0.0
 11
-75.0
 21
16.16666666666666
 31
0.0
 12
-80.0
 22
17.0
 32
0.0
 13
-80.0
 23
17.0
 33
0.0
  0
MTEXT
  5
649
330
19E
100
AcDbEntity
  8
Dimensions
 62
     0
100
AcDbMText
 10
-40.0
 20
17.0
 30
0.0
 40
3.0
 41
0.0
 71
     5
 72
     1
  1
80
 73
     1
 44
1.0
  0
POINT
  5
64A
330
19E
100
AcDbEntity
  8
Defpoints
 62
     0
100
AcDbPoint
 10
0.0
 20
17.0
 30
0.0
  0
POINT
  5
64B
330
19E
100
AcDbEntity
  8
Defpoints
 62
     0
100
AcDbPoint
 10
-80.0
 20
17.0
 30
0.0
  0
POINT
  5
64C
330
19E
100
AcDbEntity
  8
Defpoints
 62
     0
100
AcDbPoint
 10
-80.0
 20
17.0
 30
0.0
  0
ENDBLK
  5
1AA
330
19E
100
AcDbEntity
  8
0
100
AcDbBlockEnd
  0
BLOCK
  5
211
330
205
100
AcDbEntity
  8
0
100
AcDbBlockBegin
  2
*D9
 70
     1
 10
0.0
 20
0.0
 30
0.0
  3
*D9
  1

  0
LINE
  5
64D
330
205
100
AcDbEntity
  8
Dimensions
 62
     0
370
    -2
100
AcDbLine
 10
5.0
 20
283.0
 30
0.0
 11
9.577916915342299
 21
283.0
 31
0.0
  0
LINE
  5
64E
330
205
100
AcDbEntity
  8
Dimensions
 62
     0
370
    -2
100
AcDbLine
 10
5.0
 20
267.0
 30
0.0
 11
9.577916915342296
 21
267.0
 31
0.0
  0
LINE
  5
64F
330
205
100
AcDbEntity
  8
Dimensions
 62
     0
370
    -2
100
AcDbLine
 10
7.577916915342294
 20
262.0
 30
0.0
 11
7.577916915342293
 21
257.0
 31
0.0
  0
LINE
  5
650
330
205
100
AcDbEntity
  8
Dimensions
 62
     0
370
    -2
100
AcDbLine
 10
7.5779169153423
 20
288.0
 30
0.0
 11
7.577916915342306
 21
314.6596182546133
 31
0.0
  0
LINE
  5
651
330
205
100
AcDbEntity
  8
Dimensions
 62
     0
370
    -2
100
AcDbLine
 10
7.577916915342296
 20
267.0
 30
0.0
 11
7.577916915342299
 21
283.0
 31
0.0
  0
SOLID
  5
652
330
205
100
AcDbEntity
  8
Dimensions
 62
     0
100
AcDbTrace
 10
6.744583582008962
 20
262.0
 30
0.0
 11
8.411250248675628
 21
262.0
 31
0.0
 12
7.577916915342296
 22
267.0
 32
0.0
 13
7.577916915342296
 23
267.0
 33
0.0
  0
SOLID
  5
653
330
205
100
AcDbEntity
  8
Dimensions
 62
     0
100
AcDbTrace
 10
6.744583582008967
 20
288.0
 30
0.0
 11
8.411250248675633
 21
288.0
 31
0.0
 12
7.577916915342299
 22
283.0
 32
0.0
 13
7.577916915342299
 23
283.0
 33
0.0
  0
MTEXT
  5
654
330
205
100
AcDbEntity
  8
Dimensions
 62
     0
100
AcDbMText
 10
7.577916915342257
 20
326.6596182546133
 30
0.0
 40
3.0
 41
0.0
 71
     5
 72
     1
  1
16
 11
0.0000000000000001
 21
1.0
 31
0.0
 73
     1
 44
1.0
  0
POINT
  5
655
330
205
100
AcDbEntity
  8
Defpoints
 62
     0
100
AcDbPoint
 10
0.0
 20
283.0
 30
0.0
  0
POINT
  5
656
330
205
100
AcDbEntity
  8
Defpoints
 62
     0
100
AcDbPoint
 10
0.0
 20
267.0
 30
0.0
  0
POINT
  5
657
330
205
100
AcDbEntity
  8
Defpoints
 62
     0
100
AcDbPoint
 10
7.577916915342296
 20
267.0
 30
0.0
  0
ENDBLK
  5
212
330
205
100
AcDbEntity
  8
0
100
AcDbBlockEnd
  0
BLOCK
  5
3A0
330
395
100
AcDbEntity
  8
0
100
AcDbBlockBegin
  2
*D10
 70
     1
 10
0.0
 20
0.0
 30
0.0
  3
*D10
  1

  0
LINE
  5
658
330
395
100
AcDbEntity
  8
Dimensions
 62
     0
370
    -2
100
AcDbLine
 10
5.0
 20
267.0
 30
0.0
 11
20.37766276384768
 21
267.0
 31
0.0
  0
LINE
  5
659
330
395
100
AcDbEntity
  8
Dimensions
 62
     0
370
    -2
100
AcDbLine
 10
5.0
 20
217.0
 30
0.0
 11
20.37766276384767
 21
217.0
 31
0.0
  0
LINE
  5
65A
330
395
100
AcDbEntity
  8
Dimensions
 62
     0
370
    -2
100
AcDbLine
 10
18.37766276384768
 20
262.0
 30
0.0
 11
18.37766276384768
 21
256.9761835104072
 31
0.0
  0
LINE
  5
65B
330
395
100
AcDbEntity
  8
Dimensions
 62
     0
370
    -2
100
AcDbLine
 10
18.37766276384767
 20
222.0
 30
0.0
 11
18.37766276384767
 21
232.4761835104073
 31
0.0
  0
SOLID
  5
65C
330
395
100
AcDbEntity
  8
Dimensions
 62
     0
100
AcDbTrace
 10
17.54432943051434
 20
262.0
 30
0.0
 11
19.21099609718101
 21
262.0
 31
0.0
 12
18.37766276384768
 22
267.0
 32
0.0
 13
18.37766276384768
 23
267.0
 33
0.0
  0
SOLID
  5
65D
330
395
100
AcDbEntity
  8
Dimensions
 62
     0
100
AcDbTrace
 10
17.54432943051434
 20
222.0
 30
0.0
 11
19.210996097181
 21
222.0
 31
0.0
 12
18.37766276384767
 22
217.0
 32
0.0
 13
18.37766276384767
 23
217.0
 33
0.0
  0
MTEXT
  5
65E
330
395
100
AcDbEntity
  8
Dimensions
 62
     0
100
AcDbMText
 10
18.37766276384764
 20
244.7261835104072
 30
0.0
 40
3.0
 41
0.0
 71
     5
 72
     1
  1
50
 11
0.0000000000000001
 21
1.0
 31
0.0
 73
     1
 44
1.0
  0
POINT
  5
65F
330
395
100
AcDbEntity
  8
Defpoints
 62
     0
100
AcDbPoint
 10
0.0
 20
267.0
 30
0.0
  0
POINT
  5
660
330
395
100
AcDbEntity
  8
Defpoints
 62
     0
100
AcDbPoint
 10
0.0
 20
217.0
 30
0.0
  0
POINT
  5
661
330
395
100
AcDbEntity
  8
Defpoints
 62
     0
100
AcDbPoint
 10
18.37766276384767
 20
217.0
 30
0.0
  0
ENDBLK
  5
3A1
330
395
100
AcDbEntity
  8
0
100
AcDbBlockEnd
  0
BLOCK
  5
3AE
330
3A3
100
AcDbEntity
  8
0
100
AcDbBlockBegin
  2
*D11
 70
     1
 10
0.0
 20
0.0
 30
0.0
  3
*D11
  1

  0
LINE
  5
662
330
3A3
100
AcDbEntity
  8
Dimensions
 62
     0
370
    -2
100
AcDbLine
 10
5.0
 20
267.0
 30
0.0
 11
34.43155359988627
 21
267.0
 31
0.0
  0
LINE
  5
663
330
3A3
100
AcDbEntity
  8
Dimensions
 62
     0
370
    -2
100
AcDbLine
 10
5.0
 20
167.0
 30
0.0
 11
34.43155359988625
 21
167.0
 31
0.0
  0
LINE
  5
664
330
3A3
100
AcDbEntity
  8
Dimensions
 62
     0
370
    -2
100
AcDbLine
 10
32.43155359988627
 20
262.0
 30
0.0
 11
32.43155359988626
 21
229.3359873088531
 31
0.0
  0
LINE
  5
665
330
3A3
100
AcDbEntity
  8
Dimensions
 62
     0
370
    -2
100
AcDbLine
 10
32.43155359988625
 20
172.0
 30
0.0
 11
32.43155359988625
 21
203.3359873088532
 31
0.0
  0
SOLID
  5
666
330
3A3
100
AcDbEntity
  8
Dimensions
 62
     0
100
AcDbTrace
 10
31.59822026655294
 20
262.0
 30
0.0
 11
33.26488693321961
 21
262.0
 31
0.0
 12
32.43155359988627
 22
267.0
 32
0.0
 13
32.43155359988627
 23
267.0
 33
0.0
  0
SOLID
  5
667
330
3A3
100
AcDbEntity
  8
Dimensions
 62
     0
100
AcDbTrace
 10
31.59822026655292
 20
172.0
 30
0.0
 11
33.26488693321958
 21
172.0
 31
0.0
 12
32.43155359988625
 22
167.0
 32
0.0
 13
32.43155359988625
 23
167.0
 33
0.0
  0
MTEXT
  5
668
330
3A3
100
AcDbEntity
  8
Dimensions
 62
     0
100
AcDbMText
 10
32.43155359988623
 20
216.3359873088531
 30
0.0
 40
3.0
 41
0.0
 71
     5
 72
     1
  1
100
 11
0.0000000000000001
 21
1.0
 31
0.0
 73
     1
 44
1.0
  0
POINT
  5
669
330
3A3
100
AcDbEntity
  8
Defpoints
 62
     0
100
AcDbPoint
 10
0.0
 20
267.0
 30
0.0
  0
POINT
  5
66A
330
3A3
100
AcDbEntity
  8
Defpoints
 62
     0
100
AcDbPoint
 10
0.0
 20
167.0
 30
0.0
  0
POINT
  5
66B
330
3A3
100
AcDbEntity
  8
Defpoints
 62
     0
100
AcDbPoint
 10
32.43155359988625
 20
167.0
 30
0.0
  0
ENDBLK
  5
3AF
330
3A3
100
AcDbEntity
  8
0
100
AcDbBlockEnd
  0
BLOCK
  5
3BC
330
3B1
100
AcDbEntity
  8
0
100
AcDbBlockBegin
  2
*D12
 70
     1
 10
0.0
 20
0.0
 30
0.0
  3
*D12
  1

  0
LINE
  5
66C
330
3B1
100
AcDbEntity
  8
Dimensions
 62
     0
370
    -2
100
AcDbLine
 10
5.0
 20
267.0
 30
0.0
 11
44.97197278301068
 21
267.0
 31
0.0
  0
LINE
  5
66D
330
3B1
100
AcDbEntity
  8
Dimensions
 62
     0
370
    -2
100
AcDbLine
 10
5.0
 20
117.0
 30
0.0
 11
44.97197278301065
 21
116.9999999999999
 31
0.0
  0
LINE
  5
66E
330
3B1
100
AcDbEntity
  8
Dimensions
 62
     0
370
    -2
100
AcDbLine
 10
42.97197278301069
 20
262.0
 30
0.0
 11
42.97197278301067
 21
204.0348105941889
 31
0.0
  0
LINE
  5
66F
330
3B1
100
AcDbEntity
  8
Dimensions
 62
     0
370
    -2
100
AcDbLine
 10
42.97197278301065
 20
121.9999999999999
 30
0.0
 11
42.97197278301067
 21
177.5348105941889
 31
0.0
  0
SOLID
  5
670
330
3B1
100
AcDbEntity
  8
Dimensions
 62
     0
100
AcDbTrace
 10
42.13863944967735
 20
262.0
 30
0.0
 11
43.80530611634402
 21
262.0
 31
0.0
 12
42.97197278301069
 22
267.0
 32
0.0
 13
42.97197278301069
 23
267.0
 33
0.0
  0
SOLID
  5
671
330
3B1
100
AcDbEntity
  8
Dimensions
 62
     0
100
AcDbTrace
 10
42.13863944967732
 20
121.9999999999999
 30
0.0
 11
43.80530611634399
 21
121.9999999999999
 31
0.0
 12
42.97197278301065
 22
116.9999999999999
 32
0.0
 13
42.97197278301065
 23
116.9999999999999
 33
0.0
  0
MTEXT
  5
672
330
3B1
100
AcDbEntity
  8
Dimensions
 62
     0
100
AcDbMText
 10
42.97197278301064
 20
190.7848105941889
 30
0.0
 40
3.0
 41
0.0
 71
     5
 72
     1
  1
150
 11
0.0000000000000001
 21
1.0
 31
0.0
 73
     1
 44
1.0
  0
POINT
  5
673
330
3B1
100
AcDbEntity
  8
Defpoints
 62
     0
100
AcDbPoint
 10
0.0
 20
267.0
 30
0.0
  0
POINT
  5
674
330
3B1
100
AcDbEntity
  8
Defpoints
 62
     0
100
AcDbPoint
 10
0.0
 20
117.0
 30
0.0
  0
POINT
  5
675
330
3B1
100
AcDbEntity
  8
Defpoints
 62
     0
100
AcDbPoint
 10
42.97197278301065
 20
116.9999999999999
 30
0.0
  0
ENDBLK
  5
3BD
330
3B1
100
AcDbEntity
  8
0
100
AcDbBlockEnd
  0
BLOCK
  5
3CA
330
3BF
100
AcDbEntity
  8
0
100
AcDbBlockBegin
  2
*D13
 70
     1
 10
0.0
 20
0.0
 30
0.0
  3
*D13
  1

  0
LINE
  5
676
330
3BF
100
AcDbEntity
  8
Dimensions
 62
     0
370
    -2
100
AcDbLine
 10
5.0
 20
267.0
 30
0.0
 11
58.32316759871451
 21
267.0
 31
0.0
  0
LINE
  5
677
330
3BF
100
AcDbEntity
  8
Dimensions
 62
     0
370
    -2
100
AcDbLine
 10
5.0
 20
67.0
 30
0.0
 11
58.32316759871447
 21
66.99999999999999
 31
0.0
  0
LINE
  5
678
330
3BF
100
AcDbEntity
  8
Dimensions
 62
     0
370
    -2
100
AcDbLine
 10
56.32316759871451
 20
262.0
 30
0.0
 11
56.3231675987145
 21
178.3280599526809
 31
0.0
  0
LINE
  5
679
330
3BF
100
AcDbEntity
  8
Dimensions
 62
     0
370
    -2
100
AcDbLine
 10
56.32316759871446
 20
71.99999999999999
 30
0.0
 11
56.32316759871449
 21
151.3280599526809
 31
0.0
  0
SOLID
  5
67A
330
3BF
100
AcDbEntity
  8
Dimensions
 62
     0
100
AcDbTrace
 10
55.48983426538118
 20
262.0
 30
0.0
 11
57.15650093204785
 21
262.0
 31
0.0
 12
56.32316759871451
 22
267.0
 32
0.0
 13
56.32316759871451
 23
267.0
 33
0.0
  0
SOLID
  5
67B
330
3BF
100
AcDbEntity
  8
Dimensions
 62
     0
100
AcDbTrace
 10
55.48983426538113
 20
71.99999999999999
 30
0.0
 11
57.1565009320478
 21
71.99999999999999
 31
0.0
 12
56.32316759871446
 22
66.99999999999999
 32
0.0
 13
56.32316759871446
 23
66.99999999999999
 33
0.0
  0
MTEXT
  5
67C
330
3BF
100
AcDbEntity
  8
Dimensions
 62
     0
100
AcDbMText
 10
56.32316759871446
 20
164.8280599526809
 30
0.0
 40
3.0
 41
0.0
 71
     5
 72
     1
  1
200
 11
0.0000000000000001
 21
1.0
 31
0.0
 73
     1
 44
1.0
  0
POINT
  5
67D
330
3BF
100
AcDbEntity
  8
Defpoints
 62
     0
100
AcDbPoint
 10
0.0
 20
267.0
 30
0.0
  0
POINT
  5
67E
330
3BF
100
AcDbEntity
  8
Defpoints
 62
     0
100
AcDbPoint
 10
0.0
 20
67.0
 30
0.0
  0
POINT
  5
67F
330
3BF
100
AcDbEntity
  8
Defpoints
 62
     0
100
AcDbPoint
 10
56.32316759871446
 20
66.99999999999999
 30
0.0
  0
ENDBLK
  5
3CB
330
3BF
100
AcDbEntity
  8
0
100
AcDbBlockEnd
  0
BLOCK
  5
3D8
330
3CD
100
AcDbEntity
  8
0
100
AcDbBlockBegin
  2
*D14
 70
     1
 10
0.0
 20
0.0
 30
0.0
  3
*D14
  1

  0
LINE
  5
680
330
3CD
100
AcDbEntity
  8
Dimensions
 62
     0
370
    -2
100
AcDbLine
 10
5.0
 20
267.0
 30
0.0
 11
74.48514227137825
 21
267.0
 31
0.0
  0
LINE
  5
681
330
3CD
100
AcDbEntity
  8
Dimensions
 62
     0
370
    -2
100
AcDbLine
 10
5.0
 20
17.0
 30
0.0
 11
74.48514227137819
 21
16.99999999999997
 31
0.0
  0
LINE
  5
682
330
3CD
100
AcDbEntity
  8
Dimensions
 62
     0
370
    -2
100
AcDbLine
 10
72.48514227137825
 20
262.0
 30
0.0
 11
72.48514227137822
 21
155.0547548712192
 31
0.0
  0
LINE
  5
683
330
3CD
100
AcDbEntity
  8
Dimensions
 62
     0
370
    -2
100
AcDbLine
 10
72.48514227137819
 20
21.99999999999997
 30
0.0
 11
72.48514227137822
 21
127.5547548712193
 31
0.0
  0
SOLID
  5
684
330
3CD
100
AcDbEntity
  8
Dimensions
 62
     0
100
AcDbTrace
 10
71.65180893804492
 20
262.0
 30
0.0
 11
73.31847560471158
 21
262.0
 31
0.0
 12
72.48514227137825
 22
267.0
 32
0.0
 13
72.48514227137825
 23
267.0
 33
0.0
  0
SOLID
  5
685
330
3CD
100
AcDbEntity
  8
Dimensions
 62
     0
100
AcDbTrace
 10
71.65180893804486
 20
21.99999999999998
 30
0.0
 11
73.31847560471152
 21
21.99999999999997
 31
0.0
 12
72.48514227137819
 22
16.99999999999997
 32
0.0
 13
72.48514227137819
 23
16.99999999999997
 33
0.0
  0
MTEXT
  5
686
330
3CD
100
AcDbEntity
  8
Dimensions
 62
     0
100
AcDbMText
 10
72.48514227137821
 20
141.3047548712192
 30
0.0
 40
3.0
 41
0.0
 71
     5
 72
     1
  1
250
 11
0.0000000000000001
 21
1.0
 31
0.0
 73
     1
 44
1.0
  0
POINT
  5
687
330
3CD
100
AcDbEntity
  8
Defpoints
 62
     0
100
AcDbPoint
 10
0.0
 20
267.0
 30
0.0
  0
POINT
  5
688
330
3CD
100
AcDbEntity
  8
Defpoints
 62
     0
100
AcDbPoint
 10
0.0
 20
17.0
 30
0.0
  0
POINT
  5
689
330
3CD
100
AcDbEntity
  8
Defpoints
 62
     0
100
AcDbPoint
 10
72.48514227137819
 20
16.99999999999997
 30
0.0
  0
ENDBLK
  5
3D9
330
3CD
100
AcDbEntity
  8
0
100
AcDbBlockEnd
  0
ENDSEC
  0
SECTION
  2
ENTITIES
  0
LINE
  5
2B
102
{ACAD_REACTORS
330
21F
330
76
102
}
330
1F
100
AcDbEntity
  8
0
  6
CENTER
100
AcDbLine
 10
0.0
 20
0.0
 30
0.0
 11
0.0
 21
283.0
 31
0.0
  0
SPLINE
  5
5D
102
{ACAD_REACTORS
330
120
330
76
102
}
330
1F
100
AcDbEntity
  8
0
100
AcDbSpline
210
0.0
220
0.0
230
1.0
 70
     8
 71
     3
 72
    13
 73
     9
 74
     0
 42
0.0000000001
 43
0.0000000001
 40
0.0
 40
0.0
 40
0.0
 40
0.0
 40
50.00999900019994
 40
100.0499830129871
 40
150.8535261965093
 40
203.9948472188549
 40
274.0019897116035
 40
355.7882966339728
 40
355.7882966339728
 40
355.7882966339728
 40
355.7882966339728
 10
-158.9999999999999
 20
267.0
 30
0.0
 10
-158.6281481788994
 20
250.3431854464556
 30
0.0
 10
-157.884221581654
 20
217.0195692407058
 30
0.0
 10
-157.4598902722144
 20
166.5964680533001
 30
0.0
 10
-147.9600274527347
 20
116.0464542950777
 30
0.0
 10
-129.4923805620315
 20
60.24539250188965
 30
0.0
 10
-87.33333027959734
 20
6.519390333595566
 30
0.0
 10
-10.2377342464937
 20
1.4799398482336
 30
0.0
 10
-0.000000000000008
 20
0.0000000000000002
 30
0.0
  0
DIMENSION
  5
5E
102
{ACAD_XDICTIONARY
360
6C
102
}
102
{ACAD_REACTORS
330
76
102
}
330
1F
100
AcDbEntity
  8
Dimensions
100
AcDbDimension
  2
*D1
 10
91.45789680100186
 20
-0.0000000000000302
 30
0.0
 11
91.45789680100188
 21
141.7103287980628
 31
0.0
 70
   160
 71
     5
 42
283.0
  3
Copy of ISO-25
100
AcDbAlignedDimension
 13
0.0
 23
283.0
 33
0.0
 14
0.0000000000000213
 24
-0.0000000000000043
 34
0.0
 50
90.0
100
AcDbRotatedDimension
  0
LINE
  5
7C
102
{ACAD_REACTORS
330
FC
102
}
330
1F
100
AcDbEntity
  8
Deck profile
100
AcDbLine
 10
0.0
 20
267.0
 30
0.0
 11
0.0
 21
293.5
 31
0.0
  0
LINE
  5
7D
330
1F
100
AcDbEntity
  8
Deck profile
100
AcDbLine
 10
-50.0
 20
267.0
 30
0.0
 11
-50.0
 21
291.5
 31
0.0
  0
LINE
  5
7E
330
1F
100
AcDbEntity
  8
Deck profile
100
AcDbLine
 10
-100.0
 20
267.0
 30
0.0
 11
-100.0
 21
286.5
 31
0.0
  0
LINE
  5
E3
330
1F
100
AcDbEntity
  8
Deck profile
100
AcDbLine
 10
-150.0
 20
267.0
 30
0.0
 11
-150.0
 21
279.0
 31
0.0
  0
LINE
  5
E4
330
1F
100
AcDbEntity
  8
Deck profile
100
AcDbLine
 10
-172.0
 20
267.0
 30
0.0
 11
-172.0
 21
274.0
 31
0.0
  0
DIMENSION
  5
E5
102
{ACAD_XDICTIONARY
360
F2
102
}
102
{ACAD_REACTORS
330
FC
102
}
330
1F
100
AcDbEntity
  8
Deck profile
100
AcDbDimension
  2
*D2
 10
22.82584842464371
 20
267.0
 30
0.0
 11
20.95084842464366
 21
275.0
 31
0.0
 70
    32
 71
     5
 42
16.0
  3
ISO-25
100
AcDbAlignedDimension
 13
0.0
 23
283.0
 33
0.0
 14
0.0
 24
267.0
 34
0.0
 50
90.0
100
AcDbRotatedDimension
  0
LINE
  5
FD
330
1F
100
AcDbEntity
  8
Deck profile
100
AcDbLine
 10
0.0
 20
267.0
 30
0.0
 11
-206.4999999999999
 21
267.0
 31
0.0
  0
SPLINE
  5
105
330
1F
100
AcDbEntity
  8
Deck profile
100
AcDbSpline
210
0.0
220
0.0
230
1.0
 70
     8
 71
     3
 72
    12
 73
     8
 74
     6
 42
0.0000000001
 43
0.0000000001
 44
0.0000000001
 40
0.0
 40
0.0
 40
0.0
 40
0.0
 40
50.03998401278721
 40
100.2893621183916
 40
150.8487331587833
 40
173.4097615041403
 40
208.6127443323042
 40
208.6127443323042
 40
208.6127443323042
 40
208.6127443323042
 10
0.0
 20
293.5
 30
0.0
 10
-16.68424240916015
 20
293.0734800297383
 30
0.0
 10
-50.12254303323124
 20
292.2186553012299
 30
0.0
 10
-100.0996948335312
 20
286.5801700567713
 30
0.0
 10
-140.9877073778053
 20
281.51685968317
 30
0.0
 10
-176.0613256454789
 20
272.8330204100951
 30
0.0
 10
-194.9740585395838
 20
269.2087378379598
 30
0.0
 10
-206.4999999999999
 20
267.0
 30
0.0
 11
0.0
 21
293.5
 31
0.0
 11
-50.0
 21
291.5
 31
0.0
 11
-100.0
 21
286.5
 31
0.0
 11
-150.0
 21
279.0
 31
0.0
 11
-172.0
 21
274.0
 31
0.0
 11
-206.4999999999999
 21
267.0
 31
0.0
  0
SPLINE
  5
106
330
1F
100
AcDbEntity
  8
0
100
AcDbSpline
210
0.0
220
0.0
230
1.0
 70
     8
 71
     3
 72
    30
 73
    26
 74
     0
 42
0.0000000001
 43
0.0000000001
 40
0.0
 40
0.0
 40
0.0
 40
0.0
 40
27.9833638965844
 40
27.9833638965844
 40
46.66628080753862
 40
46.66628080753862
 40
55.50955128222973
 40
55.50955128222973
 40
64.35282175692084
 40
64.35282175692084
 40
82.03936270630308
 40
82.03936270630308
 40
95.99721886225431
 40
95.99721886225431
 40
104.8921686860637
 40
104.8921686860637
 40
113.7871185098732
 40
113.7871185098732
 40
131.5770181574922
 40
131.5770181574922
 40
142.5459358594368
 40
142.5459358594368
 40
151.1455070079655
 40
151.1455070079655
 40
157.630358027839
 40
157.630358027839
 40
157.630358027839
 40
157.630358027839
 10
0.2683368468399733
 20
283.0034293535161
 30
0.0
 10
-9.06182653920443
 20
282.764910821337
 30
0.0
 10
-18.34469373037435
 20
282.5272803646811
 30
0.0
 10
-33.73082222799262
 20
281.9255793893924
 30
0.0
 10
-39.86543857081332
 20
281.6298607880597
 30
0.0
 10
-48.86267042275993
 20
281.0604005458996
 30
0.0
 10
-51.74606784677133
 20
280.856149771037
 30
0.0
 10
-57.5239041209005
 20
280.4052858677165
 30
0.0
 10
-60.41550950125917
 20
280.1595045519341
 30
0.0
 10
-69.09929345009152
 20
279.371019275072
 30
0.0
 10
-74.9004412849589
 20
278.7771441627343
 30
0.0
 10
-85.30533273244142
 20
277.6404488115933
 30
0.0
 10
-89.90367726424432
 20
277.1132696870217
 30
0.0
 10
-97.44889497266719
 20
276.2297796736857
 30
0.0
 10
-100.3928953887347
 20
275.8818555871475
 30
0.0
 10
-106.2568324588037
 20
275.1783956178231
 30
0.0
 10
-109.1798646212349
 20
274.8212139875734
 30
0.0
 10
-117.9177536776764
 20
273.7129974564165
 30
0.0
 10
-123.7013711934489
 20
272.9251721009863
 30
0.0
 10
-132.9650638045289
 20
271.4870946094312
 30
0.0
 10
-136.4781138426131
 20
270.8999511927284
 30
0.0
 10
-142.7047517703065
 20
269.7621147006277
 30
0.0
 10
-145.4247256547982
 20
269.2314162080037
 30
0.0
 10
-158.9999999999999
 20
266.9999999999999
 30
0.0
 10
-155.3181675031175
 20
267.5064692914249
 30
0.0
 10
-158.9999999999999
 20
267.0
 30
0.0
  0
DIMENSION
  5
109
102
{ACAD_XDICTIONARY
360
116
102
}
102
{ACAD_REACTORS
330
120
102
}
330
1F
100
AcDbEntity
  8
Dimensions
100
AcDbDimension
  2
*D3
 10
-158.9999999999999
 20
267.0
 30
0.0
 11
-79.49999999999999
 21
267.0
 31
0.0
 70
    32
 71
     5
 42
158.9999999999999
  3
Copy of ISO-25
100
AcDbAlignedDimension
 13
0.0
 23
267.0
 33
0.0
 14
-158.9999999999999
 24
267.0
 34
0.0
100
AcDbRotatedDimension
  0
DIMENSION
  5
135
330
1F
100
AcDbEntity
  8
Dimensions
100
AcDbDimension
  2
*D4
 10
-158.0
 20
217.0
 30
0.0
 11
-79.0
 21
217.0
 31
0.0
 70
    32
 71
     5
 42
158.0
  3
Copy of ISO-25
100
AcDbAlignedDimension
 13
0.0
 23
217.0
 33
0.0
 14
-158.0
 24
217.0
 34
0.0
100
AcDbRotatedDimension
  0
DIMENSION
  5
14F
330
1F
100
AcDbEntity
  8
Dimensions
100
AcDbDimension
  2
*D5
 10
-156.0
 20
167.0
 30
0.0
 11
-78.0
 21
167.0
 31
0.0
 70
    32
 71
     5
 42
156.0
  3
Copy of ISO-25
100
AcDbAlignedDimension
 13
0.0
 23
167.0
 33
0.0
 14
-156.0
 24
167.0
 34
0.0
100
AcDbRotatedDimension
  0
DIMENSION
  5
169
330
1F
100
AcDbEntity
  8
Dimensions
100
AcDbDimension
  2
*D6
 10
-147.0
 20
117.0
 30
0.0
 11
-73.5
 21
117.0
 31
0.0
 70
    32
 71
     5
 42
147.0
  3
Copy of ISO-25
100
AcDbAlignedDimension
 13
0.0
 23
117.0
 33
0.0
 14
-147.0
 24
117.0
 34
0.0
100
AcDbRotatedDimension
  0
DIMENSION
  5
183
330
1F
100
AcDbEntity
  8
Dimensions
100
AcDbDimension
  2
*D7
 10
-129.0
 20
67.0
 30
0.0
 11
-64.5
 21
67.0
 31
0.0
 70
    32
 71
     5
 42
129.0
  3
Copy of ISO-25
100
AcDbAlignedDimension
 13
0.0
 23
67.0
 33
0.0
 14
-129.0
 24
67.0
 34
0.0
100
AcDbRotatedDimension
  0
DIMENSION
  5
19D
330
1F
100
AcDbEntity
  8
Dimensions
100
AcDbDimension
  2
*D8
 10
-80.0
 20
17.0
 30
0.0
 11
-40.0
 21
17.0
 31
0.0
 70
    32
 71
     5
 42
80.0
  3
Copy of ISO-25
100
AcDbAlignedDimension
 13
0.0
 23
17.0
 33
0.0
 14
-80.0
 24
17.0
 34
0.0
100
AcDbRotatedDimension
  0
DIMENSION
  5
204
102
{ACAD_XDICTIONARY
360
213
102
}
102
{ACAD_REACTORS
330
21F
102
}
330
1F
100
AcDbEntity
  8
Dimensions
100
AcDbDimension
  2
*D9
 10
7.577916915342296
 20
267.0
 30
0.0
 11
7.577916915342257
 21
326.6596182546133
 31
0.0
 70
   160
 71
     5
 42
16.0
  3
Copy of ISO-25
100
AcDbAlignedDimension
 13
0.0
 23
283.0
 33
0.0
 14
0.0
 24
267.0
 34
0.0
 50
90.0
100
AcDbRotatedDimension
  0
DIMENSION
  5
394
330
1F
100
AcDbEntity
  8
Dimensions
100
AcDbDimension
  2
*D10
 10
18.37766276384767
 20
217.0
 30
0.0
 11
18.37766276384764
 21
244.7261835104072
 31
0.0
 70
   160
 71
     5
 42
50.0
  3
Copy of ISO-25
100
AcDbAlignedDimension
 13
0.0
 23
267.0
 33
0.0
 14
0.0
 24
217.0
 34
0.0
 50
90.0
100
AcDbRotatedDimension
  0
DIMENSION
  5
3A2
330
1F
100
AcDbEntity
  8
Dimensions
100
AcDbDimension
  2
*D11
 10
32.43155359988625
 20
167.0
 30
0.0
 11
32.43155359988623
 21
216.3359873088531
 31
0.0
 70
   160
 71
     5
 42
100.0
  3
Copy of ISO-25
100
AcDbAlignedDimension
 13
0.0
 23
267.0
 33
0.0
 14
0.0
 24
167.0
 34
0.0
 50
90.0
100
AcDbRotatedDimension
  0
DIMENSION
  5
3B0
330
1F
100
AcDbEntity
  8
Dimensions
100
AcDbDimension
  2
*D12
 10
42.97197278301065
 20
116.9999999999999
 30
0.0
 11
42.97197278301064
 21
190.7848105941889
 31
0.0
 70
   160
 71
     5
 42
150.0
  3
Copy of ISO-25
100
AcDbAlignedDimension
 13
0.0
 23
267.0
 33
0.0
 14
0.0
 24
117.0
 34
0.0
 50
90.0
100
AcDbRotatedDimension
  0
DIMENSION
  5
3BE
330
1F
100
AcDbEntity
  8
Dimensions
100
AcDbDimension
  2
*D13
 10
56.32316759871446
 20
66.99999999999999
 30
0.0
 11
56.32316759871446
 21
164.8280599526809
 31
0.0
 70
   160
 71
     5
 42
200.0
  3
Copy of ISO-25
100
AcDbAlignedDimension
 13
0.0
 23
267.0
 33
0.0
 14
0.0
 24
67.0
 34
0.0
 50
90.0
100
AcDbRotatedDimension
  0
DIMENSION
  5
3CC
330
1F
100
AcDbEntity
  8
Dimensions
100
AcDbDimension
  2
*D14
 10
72.48514227137819
 20
16.99999999999997
 30
0.0
 11
72.48514227137821
 21
141.3047548712192
 31
0.0
 70
   160
 71
     5
 42
250.0
  3
Copy of ISO-25
100
AcDbAlignedDimension
 13
0.0
 23
267.0
 33
0.0
 14
0.0
 24
17.0
 34
0.0
 50
90.0
100
AcDbRotatedDimension
  0
LEADER
  5
502
330
1F
100
AcDbEntity
  8
Dimensions
100
AcDbLeader
  3
Copy of ISO-25
 73
     0
 40
6.705118961788032
 41
72.22422494592646
 76
     3
 10
-69.45915601749084
 20
279.5277834881084
 30
0.0
 10
-91.24268829188441
 20
307.6045787116612
 30
0.0
 10
-101.0804114546735
 20
307.6045787116612
 30
0.0
340
503
213
-5.081138418605405
223
2.5
233
0.0
1001
ACAD
1000
DSTYLE
1002
{
1070
   147
1040
10.0
1070
    77
1070
     0
1002
}
  0
MTEXT
  5
503
102
{ACAD_REACTORS
330
502
102
}
330
1F
100
AcDbEntity
  8
Dimensions
100
AcDbMText
 10
-105.9992730360681
 20
305.1045787116612
 30
0.0
 40
5.0
 41
0.0
 71
     9
 72
     1
  1
{\fTimes New Roman|b0|i0|c0|p18;Deck curvature template}
 73
     1
 44
1.0
  0
MTEXT
  5
60A
330
1F
100
AcDbEntity
  8
0
100
AcDbMText
 10
-70.16924259040433
 20
342.8027766868329
 30
0.0
 40
8.0
 41
110.6522999999999
 71
     1
 72
     5
  1
{\fTimes New Roman|b0|i0|c0|p18;Transom Profile}
 73
     1
 44
1.0
  0
ENDSEC
  0
SECTION
  2
OBJECTS
  0
DICTIONARY
  5
C
330
0
100
AcDbDictionary
281
     1
  3
ACAD_GROUP
350
D
  3
ACAD_LAYOUT
350
1A
  3
ACAD_MLINESTYLE
350
17
  3
ACAD_PLOTSETTINGS
350
19
  3
ACAD_PLOTSTYLENAME
350
E
  3
AcDbVariableDictionary
350
78
  0
DICTIONARY
  5
6C
330
5E
100
AcDbDictionary
280
     1
281
     1
  3
ACAD_DIMASSOC
360
76
  0
DICTIONARY
  5
F2
330
E5
100
AcDbDictionary
280
     1
281
     1
  3
ACAD_DIMASSOC
360
FC
  0
DICTIONARY
  5
116
330
109
100
AcDbDictionary
280
     1
281
     1
  3
ACAD_DIMASSOC
360
120
  0
DICTIONARY
  5
213
330
204
100
AcDbDictionary
280
     1
281
     1
  3
ACAD_DIMASSOC
360
21F
  0
DICTIONARY
  5
D
102
{ACAD_REACTORS
330
C
102
}
330
C
100
AcDbDictionary
281
     1
  0
DICTIONARY
  5
1A
102
{ACAD_REACTORS
330
C
102
}
330
C
100
AcDbDictionary
281
     1
  3
Layout1
350
1E
  3
Layout2
350
26
  3
Model
350
22
  0
DICTIONARY
  5
17
102
{ACAD_REACTORS
330
C
102
}
330
C
100
AcDbDictionary
281
     1
  3
Standard
350
18
  0
DICTIONARY
  5
19
102
{ACAD_REACTORS
330
C
102
}
330
C
100
AcDbDictionary
281
     1
  0
ACDBDICTIONARYWDFLT
  5
E
102
{ACAD_REACTORS
330
C
102
}
330
C
100
AcDbDictionary
281
     1
  3
Normal
350
F
100
AcDbDictionaryWithDefault
340
F
  0
DICTIONARY
  5
78
102
{ACAD_REACTORS
330
C
102
}
330
C
100
AcDbDictionary
281
     1
  3
DIMASSOC
350
7A
  3
HIDETEXT
350
79
  0
DIMASSOC
  5
76
102
{ACAD_REACTORS
330
6C
102
}
330
6C
100
AcDbDimAssoc
330
5E
 90
        3
 70
     0
 71
     0
  1
AcDbOsnapPointRef
 72
     1
331
2B
 73
     2
 91
        0
 40
1.0
 10
0.0
 20
283.0
 30
0.0
 75
     0
  1
AcDbOsnapPointRef
 72
     1
331
5D
 73
     2
 91
        0
 40
355.7882966339728
 10
0.0000000000000213
 20
-0.0000000000000043
 30
0.0
 75
     0
  0
DIMASSOC
  5
FC
102
{ACAD_REACTORS
330
F2
102
}
330
F2
100
AcDbDimAssoc
330
E5
 90
        3
 70
     0
 71
     0
  1
AcDbOsnapPointRef
 72
     1
331
7C
 73
     2
 91
        0
 40
1.0
 10
0.0
 20
283.0
 30
0.0
 75
     0
  1
AcDbOsnapPointRef
 72
    13
331
7C
 73
     2
 91
        0
 40
0.0
 10
0.0
 20
267.0
 30
0.0
 75
     0
  0
DIMASSOC
  5
120
102
{ACAD_REACTORS
330
116
102
}
330
116
100
AcDbDimAssoc
330
109
 90
        2
 70
     0
 71
     0
  1
AcDbOsnapPointRef
 72
    13
331
5D
 73
     2
 91
        0
 40
0.0
 10
-158.9999999999999
 20
267.0
 30
0.0
 75
     0
  0
DIMASSOC
  5
21F
102
{ACAD_REACTORS
330
213
102
}
330
213
100
AcDbDimAssoc
330
204
 90
        1
 70
     0
 71
     0
  1
AcDbOsnapPointRef
 72
     1
331
2B
 73
     2
 91
        0
 40
1.0
 10
0.0
 20
283.0
 30
0.0
 75
     0
  0
LAYOUT
  5
1E
102
{ACAD_REACTORS
330
1A
102
}
330
1A
100
AcDbPlotSettings
  1

  2
Canon MP160 Printer
  4

  6

 40
0.0
 41
0.0
 42
0.0
 43
0.0
 44
0.0
 45
0.0
 46
0.0
 47
0.0
 48
0.0
 49
0.0
140
0.0
141
0.0
142
1.0
143
1.0
 70
   688
 72
     0
 73
     0
 74
     5
  7

 75
    16
147
1.0
148
0.0
149
0.0
100
AcDbLayout
  1
Layout1
 70
     1
 71
     1
 10
0.0
 20
0.0
 11
420.0
 21
297.0
 12
0.0
 22
0.0
 32
0.0
 14
1.000000000000000E+20
 24
1.000000000000000E+20
 34
1.000000000000000E+20
 15
-1.000000000000000E+20
 25
-1.000000000000000E+20
 35
-1.000000000000000E+20
146
0.0
 13
0.0
 23
0.0
 33
0.0
 16
1.0
 26
0.0
 36
0.0
 17
0.0
 27
1.0
 37
0.0
 76
     0
330
1B
  0
LAYOUT
  5
26
102
{ACAD_REACTORS
330
1A
102
}
330
1A
100
AcDbPlotSettings
  1

  2
Canon MP160 Printer
  4

  6

 40
0.0
 41
0.0
 42
0.0
 43
0.0
 44
0.0
 45
0.0
 46
0.0
 47
0.0
 48
0.0
 49
0.0
140
0.0
141
0.0
142
1.0
143
1.0
 70
   688
 72
     0
 73
     0
 74
     5
  7

 75
    16
147
1.0
148
0.0
149
0.0
100
AcDbLayout
  1
Layout2
 70
     1
 71
     2
 10
0.0
 20
0.0
 11
12.0
 21
9.0
 12
0.0
 22
0.0
 32
0.0
 14
0.0
 24
0.0
 34
0.0
 15
0.0
 25
0.0
 35
0.0
146
0.0
 13
0.0
 23
0.0
 33
0.0
 16
1.0
 26
0.0
 36
0.0
 17
0.0
 27
1.0
 37
0.0
 76
     0
330
23
  0
LAYOUT
  5
22
102
{ACAD_REACTORS
330
1A
102
}
330
1A
100
AcDbPlotSettings
  1

  2
Canon MP160 Printer
  4
A4
  6

 40
4.180416584014892
 41
5.83141803741455
 42
4.180404663085937
 43
3.757080078125
 44
209.9733276367187
 45
296.9683227539062
 46
0.0
 47
0.0
 48
-215.1405518159758
 49
-131.0155354604254
140
168.1650760367188
141
348.9662003279689
142
1.0
143
1.901199656294898
 70
 11952
 72
     1
 73
     0
 74
     4
  7

 75
     0
147
0.5259836844010497
148
215.1405518159758
149
131.0155354604254
100
AcDbLayout
  1
Model
 70
     1
 71
     0
 10
0.0
 20
0.0
 11
12.0
 21
9.0
 12
0.0
 22
0.0
 32
0.0
 14
0.0
 24
0.0
 34
0.0
 15
0.0
 25
0.0
 35
0.0
146
0.0
 13
0.0
 23
0.0
 33
0.0
 16
1.0
 26
0.0
 36
0.0
 17
0.0
 27
1.0
 37
0.0
 76
     0
330
1F
  0
MLINESTYLE
  5
18
102
{ACAD_REACTORS
330
17
102
}
330
17
100
AcDbMlineStyle
  2
STANDARD
 70
     0
  3

 62
   256
 51
90.0
 52
90.0
 71
     2
 49
0.5
 62
   256
  6
BYLAYER
 49
-0.5
 62
   256
  6
BYLAYER
  0
ACDBPLACEHOLDER
  5
F
102
{ACAD_REACTORS
330
E
102
}
330
E
  0
DICTIONARYVAR
  5
7A
102
{ACAD_REACTORS
330
78
102
}
330
78
100
DictionaryVariables
280
     0
  1
2
  0
DICTIONARYVAR
  5
79
102
{ACAD_REACTORS
330
78
102
}
330
78
100
DictionaryVariables
280
     0
  1
1
  0
ENDSEC
  0
EOF
