  0
SECTION
  2
HEADER
  9
$ACADVER
  1
AC1015
  9
$ACADMAINTVER
 70
    13
  9
$DWGCODEPAGE
  3
ANSI_1252
  9
$INSBASE
 10
0.0
 20
0.0
 30
0.0
  9
$EXTMIN
 10
1708.705041491152
 20
270.8393006963717
 30
-0.0000000349181977
  9
$EXTMAX
 10
2376.128089618441
 20
763.5758045558205
 30
0.0000000814935718
  9
$LIMMIN
 10
0.0
 20
0.0
  9
$LIMMAX
 10
0.0
 20
0.0
  9
$ORTHOMODE
 70
     0
  9
$REGENMODE
 70
     1
  9
$FILLMODE
 70
     1
  9
$QTEXTMODE
 70
     0
  9
$MIRRTEXT
 70
     1
  9
$LTSCALE
 40
1.0
  9
$ATTMODE
 70
     1
  9
$TEXTSIZE
 40
0.0
  9
$TRACEWID
 40
0.05
  9
$TEXTSTYLE
  7
STANDARD
  9
$CLAYER
  8
0
  9
$CELTYPE
  6
CONTINUOUS
  9
$CECOLOR
 62
     7
  9
$CELTSCALE
 40
1.0
  9
$DISPSILH
 70
     0
  9
$DIMSCALE
 40
1.0
  9
$DIMASZ
 40
20.0
  9
$DIMEXO
 40
20.0
  9
$DIMDLI
 40
0.38
  9
$DIMRND
 40
0.0
  9
$DIMDLE
 40
0.0
  9
$DIMEXE
 40
10.0
  9
$DIMTP
 40
0.01
  9
$DIMTM
 40
-0.01
  9
$DIMTXT
 40
20.0
  9
$DIMCEN
 40
0.09
  9
$DIMTSZ
 40
0.0
  9
$DIMTOL
 70
     0
  9
$DIMLIM
 70
     0
  9
$DIMTIH
 70
     1
  9
$DIMTOH
 70
     1
  9
$DIMSE1
 70
     0
  9
$DIMSE2
 70
     0
  9
$DIMTAD
 70
     0
  9
$DIMZIN
 70
     0
  9
$DIMBLK
  1

  9
$DIMASO
 70
     1
  9
$DIMSHO
 70
     1
  9
$DIMPOST
  1

  9
$DIMAPOST
  1

  9
$DIMALT
 70
     0
  9
$DIMALTD
 70
     2
  9
$DIMALTF
 40
25.4
  9
$DIMLFAC
 40
1.0
  9
$DIMTOFL
 70
     0
  9
$DIMTVP
 40
0.0
  9
$DIMTIX
 70
     0
  9
$DIMSOXD
 70
     0
  9
$DIMSAH
 70
     0
  9
$DIMBLK1
  1

  9
$DIMBLK2
  1

  9
$DIMSTYLE
  2
STANDARD
  9
$DIMCLRD
 70
     7
  9
$DIMCLRE
 70
     0
  9
$DIMCLRT
 70
     7
  9
$DIMTFAC
 40
1.0
  9
$DIMGAP
 40
0.09
  9
$DIMJUST
 70
     0
  9
$DIMSD1
 70
     0
  9
$DIMSD2
 70
     0
  9
$DIMTOLJ
 70
     1
  9
$DIMTZIN
 70
     0
  9
$DIMALTZ
 70
     0
  9
$DIMALTTZ
 70
     0
  9
$DIMUPT
 70
     0
  9
$DIMDEC
 70
     0
  9
$DIMTDEC
 70
     0
  9
$DIMALTU
 70
     2
  9
$DIMALTTD
 70
     2
  9
$DIMTXSTY
  7
STANDARD
  9
$DIMAUNIT
 70
     0
  9
$DIMADEC
 70
     0
  9
$DIMALTRND
 40
0.0
  9
$DIMAZIN
 70
     0
  9
$DIMDSEP
 70
    46
  9
$DIMATFIT
 70
     3
  9
$DIMFRAC
 70
     0
  9
$DIMLDRBLK
  1

  9
$DIMLUNIT
 70
     2
  9
$DIMLWD
 70
    -2
  9
$DIMLWE
 70
    -2
  9
$DIMTMOVE
 70
     0
  9
$LUNITS
 70
     2
  9
$LUPREC
 70
    10
  9
$SKETCHINC
 40
0.1
  9
$FILLETRAD
 40
0.0
  9
$AUNITS
 70
     0
  9
$AUPREC
 70
     0
  9
$MENU
  1
acad
  9
$ELEVATION
 40
0.0
  9
$PELEVATION
 40
0.0
  9
$THICKNESS
 40
0.0
  9
$LIMCHECK
 70
     0
  9
$CHAMFERA
 40
0.0
  9
$CHAMFERB
 40
0.0
  9
$CHAMFERC
 40
0.0
  9
$CHAMFERD
 40
0.0
  9
$SKPOLY
 70
     0
  9
$TDCREATE
 40
2313903.392062696
  9
$TDUCREATE
 40
2313902.996229363
  9
$TDUPDATE
 40
2456148.943798993
  9
$TDUUPDATE
 40
2456148.547965660
  9
$TDINDWG
 40
0.0093586343
  9
$TDUSRTIMER
 40
0.0093586343
  9
$USRTIMER
 70
     1
  9
$ANGBASE
 50
0.0
  9
$ANGDIR
 70
     0
  9
$PDMODE
 70
     2
  9
$PDSIZE
 40
0.0
  9
$PLINEWID
 40
0.0
  9
$SPLFRAME
 70
     0
  9
$SPLINETYPE
 70
     6
  9
$SPLINESEGS
 70
     8
  9
$HANDSEED
  5
140
  9
$SURFTAB1
 70
     6
  9
$SURFTAB2
 70
     6
  9
$SURFTYPE
 70
     6
  9
$SURFU
 70
     6
  9
$SURFV
 70
     6
  9
$UCSBASE
  2

  9
$UCSNAME
  2

  9
$UCSORG
 10
0.0
 20
0.0
 30
0.0
  9
$UCSXDIR
 10
1.0
 20
0.0
 30
0.0
  9
$UCSYDIR
 10
0.0
 20
1.0
 30
0.0
  9
$UCSORTHOREF
  2

  9
$UCSORTHOVIEW
 70
     0
  9
$UCSORGTOP
 10
0.0
 20
0.0
 30
0.0
  9
$UCSORGBOTTOM
 10
0.0
 20
0.0
 30
0.0
  9
$UCSORGLEFT
 10
0.0
 20
0.0
 30
0.0
  9
$UCSORGRIGHT
 10
0.0
 20
0.0
 30
0.0
  9
$UCSORGFRONT
 10
0.0
 20
0.0
 30
0.0
  9
$UCSORGBACK
 10
0.0
 20
0.0
 30
0.0
  9
$PUCSBASE
  2

  9
$PUCSNAME
  2

  9
$PUCSORG
 10
0.0
 20
0.0
 30
0.0
  9
$PUCSXDIR
 10
1.0
 20
0.0
 30
0.0
  9
$PUCSYDIR
 10
0.0
 20
1.0
 30
0.0
  9
$PUCSORTHOREF
  2

  9
$PUCSORTHOVIEW
 70
     0
  9
$PUCSORGTOP
 10
0.0
 20
0.0
 30
0.0
  9
$PUCSORGBOTTOM
 10
0.0
 20
0.0
 30
0.0
  9
$PUCSORGLEFT
 10
0.0
 20
0.0
 30
0.0
  9
$PUCSORGRIGHT
 10
0.0
 20
0.0
 30
0.0
  9
$PUCSORGFRONT
 10
0.0
 20
0.0
 30
0.0
  9
$PUCSORGBACK
 10
0.0
 20
0.0
 30
0.0
  9
$USERI1
 70
     0
  9
$USERI2
 70
     0
  9
$USERI3
 70
     0
  9
$USERI4
 70
     0
  9
$USERI5
 70
     0
  9
$USERR1
 40
0.0
  9
$USERR2
 40
0.0
  9
$USERR3
 40
0.0
  9
$USERR4
 40
0.0
  9
$USERR5
 40
0.0
  9
$WORLDVIEW
 70
     1
  9
$SHADEDGE
 70
     3
  9
$SHADEDIF
 70
    70
  9
$TILEMODE
 70
     1
  9
$MAXACTVP
 70
    16
  9
$PINSBASE
 10
0.0
 20
0.0
 30
0.0
  9
$PLIMCHECK
 70
     0
  9
$PEXTMIN
 10
1.000000000000000E+20
 20
1.000000000000000E+20
 30
1.000000000000000E+20
  9
$PEXTMAX
 10
-1.000000000000000E+20
 20
-1.000000000000000E+20
 30
-1.000000000000000E+20
  9
$PLIMMIN
 10
0.0
 20
0.0
  9
$PLIMMAX
 10
12.0
 20
9.0
  9
$UNITMODE
 70
     0
  9
$VISRETAIN
 70
     0
  9
$PLINEGEN
 70
     1
  9
$PSLTSCALE
 70
     0
  9
$TREEDEPTH
 70
  3020
  9
$CMLSTYLE
  2
STANDARD
  9
$CMLJUST
 70
     0
  9
$CMLSCALE
 40
1.0
  9
$PROXYGRAPHICS
 70
     0
  9
$MEASUREMENT
 70
     0
  9
$CELWEIGHT
370
    -1
  9
$ENDCAPS
280
     0
  9
$JOINSTYLE
280
     0
  9
$LWDISPLAY
290
     0
  9
$INSUNITS
 70
     0
  9
$HYPERLINKBASE
  1

  9
$STYLESHEET
  1

  9
$XEDIT
290
     1
  9
$CEPSNTYPE
380
     0
  9
$PSTYLEMODE
290
     1
  9
$FINGERPRINTGUID
  2
{CFBD6CF7-C943-4D59-82FB-B88E2C4C5BDF}
  9
$VERSIONGUID
  2
{1CC8ECB1-3C54-418C-BCE1-534008D73949}
  9
$EXTNAMES
290
     1
  9
$PSVPSCALE
 40
0.0
  9
$OLESTARTUP
290
     0
  0
ENDSEC
  0
SECTION
  2
CLASSES
  0
CLASS
  1
LWPOLYLINE
  2
AcDbPolyline
  3
AutoCAD 2000
 90
    32768
280
     0
281
     1
  0
CLASS
  1
IMAGE
  2
AcDbRasterImage
  3
ISM
 90
    32895
280
     0
281
     1
  0
CLASS
  1
OLE2FRAME
  2
AcDbOle2Frame
  3
AutoCAD 2000
 90
    32768
280
     0
281
     1
  0
CLASS
  1
HATCH
  2
AcDbHatch
  3
AutoCAD 2000
 90
    32768
280
     0
281
     1
  0
CLASS
  1
DICTIONARYVAR
  2
AcDbDictionaryVar
  3
AutoCAD 2000
 90
        0
280
     0
281
     0
  0
CLASS
  1
RASTERVARIABLES
  2
AcDbRasterVariables
  3
ISM
 90
    32768
280
     0
281
     0
  0
CLASS
  1
IMAGEDEF
  2
AcDbRasterImageDef
  3
ISM
 90
    32768
280
     0
281
     0
  0
CLASS
  1
IMAGEDEF_REACTOR
  2
AcDbRasterImageDefReactor
  3
ISM
 90
    32769
280
     0
281
     0
  0
CLASS
  1
IDBUFFER
  2
AcDbIdBuffer
  3
AutoCAD 2000
 90
    32768
280
     0
281
     0
  0
CLASS
  1
SPATIAL_FILTER
  2
AcDbSpatialFilter
  3
AutoCAD 2000
 90
    32768
280
     0
281
     0
  0
CLASS
  1
XRECORD
  2
AcDbXrecord
  3
AutoCAD 2000
 90
    32768
280
     0
281
     0
  0
CLASS
  1
SORTENTSTABLE
  2
AcDbSortentsTable
  3
AutoCAD 2000
 90
    32768
280
     0
281
     0
  0
CLASS
  1
LAYER_INDEX
  2
AcDbLayerIndex
  3
AutoCAD 2000
 90
    32768
280
     0
281
     0
  0
CLASS
  1
SPATIAL_INDEX
  2
AcDbSpatialIndex
  3
AutoCAD 2000
 90
    32768
280
     0
281
     0
  0
CLASS
  1
OBJECT_PTR
  2
CAseDLPNTableRecord
  3
ASE-LPNTableRecord
 90
    32769
280
     0
281
     0
  0
CLASS
  1
LAYOUT
  2
AcDbLayout
  3
AutoCAD 2000
 90
        0
280
     0
281
     0
  0
CLASS
  1
PLOTSETTINGS
  2
AcDbPlotSettings
  3
AutoCAD 2000
 90
    32768
280
     0
281
     0
  0
CLASS
  1
ACDBDICTIONARYWDFLT
  2
AcDbDictionaryWithDefault
  3
AutoCAD 2000
 90
        0
280
     0
281
     0
  0
CLASS
  1
ACDBPLACEHOLDER
  2
AcDbPlaceHolder
  3
AutoCAD 2000
 90
        0
280
     0
281
     0
  0
CLASS
  1
VBA_PROJECT
  2
AcDbVbaProject
  3
acadvba
 90
    32768
280
     0
281
     0
  0
CLASS
  1
WIPEOUT
  2
AcDbWipeout
  3
WipeOut|AutoCAD Express Tool|expresstools@autodesk.com
 90
    32895
280
     0
281
     1
  0
CLASS
  1
WIPEOUTVARIABLES
  2
AcDbWipeoutVariables
  3
WipeOut|AutoCAD Express Tool|expresstools@autodesk.com
 90
    32768
280
     0
281
     0
  0
CLASS
  1
RTEXT
  2
RText
  3
RText|AutoCAD Express Tool|expresstools@autodesk.com
 90
    32768
280
     0
281
     1
  0
CLASS
  1
ARCALIGNEDTEXT
  2
AcDbArcAlignedText
  3
ATEXT|AutoCAD Express Tool|expresstools@autodesk.com
 90
    32768
280
     0
281
     1
  0
ENDSEC
  0
SECTION
  2
TABLES
  0
TABLE
  2
VPORT
  5
7
330
0
100
AcDbSymbolTable
 70
     3
  0
VPORT
  5
13F
330
7
100
AcDbSymbolTableRecord
100
AcDbViewportTableRecord
  2
*Active
 70
     0
 10
0.0
 20
0.0
 11
1.0
 21
1.0
 12
2089.582047144959
 22
521.9161769997747
 13
0.0
 23
0.0
 14
1.0
 24
1.0
 15
0.0
 25
0.0
 16
0.0
 26
0.0
 36
1.0
 17
0.0
 27
0.0
 37
0.0
 40
559.5320546586833
 41
2.470817120622568
 42
50.0
 43
0.0
 44
0.0
 50
0.0
 51
0.0
 71
     0
 72
   100
 73
     1
 74
     1
 75
     0
 76
     0
 77
     0
 78
     0
281
     0
 65
     1
110
0.0
120
0.0
130
0.0
111
1.0
121
0.0
131
0.0
112
0.0
122
1.0
132
0.0
 79
     0
146
0.0
  0
ENDTAB
  0
TABLE
  2
LTYPE
  5
4
330
0
100
AcDbSymbolTable
 70
     4
  0
LTYPE
  5
11
330
4
100
AcDbSymbolTableRecord
100
AcDbLinetypeTableRecord
  2
BYBLOCK
 70
     0
  3

 72
    65
 73
     0
 40
0.0
  0
LTYPE
  5
12
330
4
100
AcDbSymbolTableRecord
100
AcDbLinetypeTableRecord
  2
BYLAYER
 70
     0
  3

 72
    65
 73
     0
 40
0.0
  0
LTYPE
  5
13
330
4
100
AcDbSymbolTableRecord
100
AcDbLinetypeTableRecord
  2
CONTINUOUS
 70
     0
  3
Solid line
 72
    65
 73
     0
 40
0.0
  0
LTYPE
  5
1D
330
4
100
AcDbSymbolTableRecord
100
AcDbLinetypeTableRecord
  2
DASHED
 70
     0
  3
_ _ _ _ _ _ _ _ _ _ _ _ _ _ _ _
 72
    65
 73
     2
 40
0.2
 49
0.1
 74
     0
 49
-0.1
 74
     0
  0
LTYPE
  5
1E
330
4
100
AcDbSymbolTableRecord
100
AcDbLinetypeTableRecord
  2
CENTER
 70
     0
  3
___ _ ___ _ ___ _ ___ _ ___ _ ___ _ ___ _ ___ _
 72
    65
 73
     4
 40
0.95
 49
0.625
 74
     0
 49
-0.125
 74
     0
 49
0.075
 74
     0
 49
-0.125
 74
     0
  0
LTYPE
  5
1F
330
4
100
AcDbSymbolTableRecord
100
AcDbLinetypeTableRecord
  2
PHANTOM
 70
     0
  3
______  __  __  ______  __  __  ______  __  __  
 72
    65
 73
     6
 40
1.024999999999999
 49
0.625
 74
     0
 49
-0.125
 74
     0
 49
0.075
 74
     0
 49
-0.125
 74
     0
 49
0.075
 74
     0
 49
-0.125
 74
     0
  0
ENDTAB
  0
TABLE
  2
LAYER
  5
2
330
0
100
AcDbSymbolTable
 70
     4
  0
LAYER
  5
14
330
2
100
AcDbSymbolTableRecord
100
AcDbLayerTableRecord
  2
0
 70
     0
 62
     7
  6
CONTINUOUS
370
    -3
390
9B
  0
LAYER
  5
21
330
2
100
AcDbSymbolTableRecord
100
AcDbLayerTableRecord
  2
CK_LEVEL_1
 70
     0
 62
     7
  6
CONTINUOUS
370
    -3
390
9B
  0
LAYER
  5
22
330
2
100
AcDbSymbolTableRecord
100
AcDbLayerTableRecord
  2
CK_LEVEL_2
 70
     0
 62
     7
  6
CONTINUOUS
370
    -3
390
9B
  0
LAYER
  5
D0
330
2
100
AcDbSymbolTableRecord
100
AcDbLayerTableRecord
  2
Defpoints
 70
     0
 62
     7
  6
CONTINUOUS
290
     0
370
    -3
390
9B
  0
ENDTAB
  0
TABLE
  2
STYLE
  5
3
330
0
100
AcDbSymbolTable
 70
     1
  0
STYLE
  5
17
330
3
100
AcDbSymbolTableRecord
100
AcDbTextStyleTableRecord
  2
STANDARD
 70
     0
 40
0.0
 41
1.0
 50
0.0
 71
     0
 42
0.0
  3
txt
  4

  0
ENDTAB
  0
TABLE
  2
VIEW
  5
5
330
0
100
AcDbSymbolTable
 70
     0
  0
ENDTAB
  0
TABLE
  2
UCS
  5
6
330
0
100
AcDbSymbolTable
 70
     1
  0
UCS
  5
20
330
6
100
AcDbSymbolTableRecord
100
AcDbUCSTableRecord
  2
CK_VIEW_1
 70
     0
 10
0.0
 20
0.0
 30
1.0
 11
1.0
 21
0.0
 31
0.0
 12
0.0
 22
1.0
 32
0.0
 79
     0
146
0.0
  0
ENDTAB
  0
TABLE
  2
APPID
  5
8
330
0
100
AcDbSymbolTable
 70
     2
  0
APPID
  5
16
330
8
100
AcDbSymbolTableRecord
100
AcDbRegAppTableRecord
  2
ACAD
 70
     0
  0
APPID
  5
A4
330
8
100
AcDbSymbolTableRecord
100
AcDbRegAppTableRecord
  2
DCO15
 70
     0
  0
ENDTAB
  0
TABLE
  2
DIMSTYLE
  5
9
330
0
100
AcDbSymbolTable
 70
     1
100
AcDbDimStyleTable
 71
     1
340
18
  0
DIMSTYLE
105
18
102
{ACAD_REACTORS
330
CF
330
106
330
114
330
122
330
130
102
}
330
9
100
AcDbSymbolTableRecord
100
AcDbDimStyleTableRecord
  2
STANDARD
 70
     0
340
17
  0
ENDTAB
  0
TABLE
  2
BLOCK_RECORD
  5
1
330
0
100
AcDbSymbolTable
 70
     5
  0
BLOCK_RECORD
  5
A
330
1
100
AcDbSymbolTableRecord
100
AcDbBlockTableRecord
  2
*MODEL_SPACE
340
9E
  0
BLOCK_RECORD
  5
B
330
1
100
AcDbSymbolTableRecord
100
AcDbBlockTableRecord
  2
*PAPER_SPACE
340
9F
  0
BLOCK_RECORD
  5
D1
330
1
100
AcDbSymbolTableRecord
100
AcDbBlockTableRecord
  2
*D0
340
0
  0
BLOCK_RECORD
  5
107
330
1
100
AcDbSymbolTableRecord
100
AcDbBlockTableRecord
  2
*D1
340
0
  0
BLOCK_RECORD
  5
115
330
1
100
AcDbSymbolTableRecord
100
AcDbBlockTableRecord
  2
*D2
340
0
  0
BLOCK_RECORD
  5
123
330
1
100
AcDbSymbolTableRecord
100
AcDbBlockTableRecord
  2
*D3
340
0
  0
BLOCK_RECORD
  5
131
330
1
100
AcDbSymbolTableRecord
100
AcDbBlockTableRecord
  2
*D4
340
0
  0
ENDTAB
  0
ENDSEC
  0
SECTION
  2
BLOCKS
  0
BLOCK
  5
D
330
A
100
AcDbEntity
  8
0
100
AcDbBlockBegin
  2
*MODEL_SPACE
 70
     0
 10
0.0
 20
0.0
 30
0.0
  3
*MODEL_SPACE
  1

  0
ENDBLK
  5
E
330
A
100
AcDbEntity
  8
0
100
AcDbBlockEnd
  0
BLOCK
  5
F
330
B
100
AcDbEntity
 67
     1
  8
0
100
AcDbBlockBegin
  2
*PAPER_SPACE
 70
     0
 10
0.0
 20
0.0
 30
0.0
  3
*PAPER_SPACE
  1

  0
ENDBLK
  5
10
330
B
100
AcDbEntity
 67
     1
  8
0
100
AcDbBlockEnd
  0
BLOCK
  5
DC
330
D1
100
AcDbEntity
  8
0
 62
     7
100
AcDbBlockBegin
  2
*D0
 70
     1
 10
0.0
 20
0.0
 30
0.0
  3
*D0
  1

  0
LINE
  5
FC
330
D1
100
AcDbEntity
  8
0
  6
Continuous
 62
     0
370
    -2
100
AcDbLine
 10
2248.753615874512
 20
700.8785473509983
 30
0.0
 11
2362.770476173005
 21
700.8785473509982
 31
0.0
  0
LINE
  5
FD
330
D1
100
AcDbEntity
  8
0
  6
Continuous
 62
     0
370
    -2
100
AcDbLine
 10
2032.753615874432
 20
383.8785473509907
 30
0.0
 11
2362.770476173005
 21
383.8785473509906
 31
0.0
  0
LINE
  5
FE
330
D1
100
AcDbEntity
  8
0
  6
Continuous
 62
     7
370
    -2
100
AcDbLine
 10
2352.770476173005
 20
680.8785473509982
 30
0.0
 11
2352.770476173005
 21
552.4685473509943
 31
0.0
  0
LINE
  5
FF
330
D1
100
AcDbEntity
  8
0
  6
Continuous
 62
     7
370
    -2
100
AcDbLine
 10
2352.770476173005
 20
403.8785473509906
 30
0.0
 11
2352.770476173005
 21
532.2885473509943
 31
0.0
  0
SOLID
  5
100
330
D1
100
AcDbEntity
  8
0
  6
Continuous
 62
     7
100
AcDbTrace
 10
2349.437142839672
 20
680.8785473509982
 30
0.0
 11
2356.103809506339
 21
680.8785473509982
 31
0.0
 12
2352.770476173005
 22
700.8785473509982
 32
0.0
 13
2352.770476173005
 23
700.8785473509982
 33
0.0
  0
SOLID
  5
101
330
D1
100
AcDbEntity
  8
0
  6
Continuous
 62
     7
100
AcDbTrace
 10
2349.437142839672
 20
403.8785473509906
 30
0.0
 11
2356.103809506339
 21
403.8785473509906
 31
0.0
 12
2352.770476173005
 22
383.8785473509906
 32
0.0
 13
2352.770476173005
 23
383.8785473509906
 33
0.0
  0
MTEXT
  5
102
330
D1
100
AcDbEntity
  8
0
  6
Continuous
 62
     7
100
AcDbMText
 10
2352.770476173005
 20
542.3785473509948
 30
0.0
 40
20.0
 41
0.0
 71
     5
 72
     1
  1
\A1;317
 73
     1
 44
1.0
  0
POINT
  5
103
330
D1
100
AcDbEntity
  8
Defpoints
  6
Continuous
 62
     0
100
AcDbPoint
 10
2228.753615874512
 20
700.8785473509983
 30
0.0
  0
POINT
  5
104
330
D1
100
AcDbEntity
  8
Defpoints
  6
Continuous
 62
     0
100
AcDbPoint
 10
2012.753615874432
 20
383.8785473509907
 30
0.0
  0
POINT
  5
105
330
D1
100
AcDbEntity
  8
Defpoints
  6
Continuous
 62
     0
100
AcDbPoint
 10
2352.770476173005
 20
383.8785473509906
 30
0.0
  0
ENDBLK
  5
DD
330
D1
100
AcDbEntity
  8
0
 62
     7
100
AcDbBlockEnd
  0
BLOCK
  5
112
330
107
100
AcDbEntity
  8
0
 62
     7
100
AcDbBlockBegin
  2
*D1
 70
     1
 10
0.0
 20
0.0
 30
0.0
  3
*D1
  1

  0
LINE
  5
108
330
107
100
AcDbEntity
  8
0
  6
Continuous
 62
     0
370
    -2
100
AcDbLine
 10
2148.753615874511
 20
720.8785473509983
 30
0.0
 11
2148.753615874511
 21
763.5336272407811
 31
0.0
  0
LINE
  5
109
330
107
100
AcDbEntity
  8
0
  6
Continuous
 62
     0
370
    -2
100
AcDbLine
 10
1793.753615874512
 20
720.8785473509983
 30
0.0
 11
1793.753615874512
 21
763.5336272407811
 31
0.0
  0
LINE
  5
10A
330
107
100
AcDbEntity
  8
0
  6
Continuous
 62
     7
370
    -2
100
AcDbLine
 10
2128.753615874511
 20
753.5336272407811
 30
0.0
 11
1998.010282541178
 21
753.5336272407811
 31
0.0
  0
LINE
  5
10B
330
107
100
AcDbEntity
  8
0
  6
Continuous
 62
     7
370
    -2
100
AcDbLine
 10
1813.753615874512
 20
753.5336272407811
 30
0.0
 11
1944.496949207845
 21
753.5336272407811
 31
0.0
  0
SOLID
  5
10C
330
107
100
AcDbEntity
  8
0
  6
Continuous
 62
     7
100
AcDbTrace
 10
2128.753615874511
 20
756.8669605741145
 30
0.0
 11
2128.753615874511
 21
750.2002939074477
 31
0.0
 12
2148.753615874511
 22
753.5336272407811
 32
0.0
 13
2148.753615874511
 23
753.5336272407811
 33
0.0
  0
SOLID
  5
10D
330
107
100
AcDbEntity
  8
0
  6
Continuous
 62
     7
100
AcDbTrace
 10
1813.753615874512
 20
756.8669605741145
 30
0.0
 11
1813.753615874512
 21
750.2002939074477
 31
0.0
 12
1793.753615874512
 22
753.5336272407811
 32
0.0
 13
1793.753615874512
 23
753.5336272407811
 33
0.0
  0
MTEXT
  5
10E
330
107
100
AcDbEntity
  8
0
  6
Continuous
 62
     7
100
AcDbMText
 10
1971.253615874512
 20
753.5336272407811
 30
0.0
 40
20.0
 41
0.0
 71
     5
 72
     1
  1
\A1;355
 73
     1
 44
1.0
  0
POINT
  5
10F
330
107
100
AcDbEntity
  8
Defpoints
  6
Continuous
 62
     0
100
AcDbPoint
 10
2148.753615874511
 20
700.8785473509983
 30
0.0
  0
POINT
  5
110
330
107
100
AcDbEntity
  8
Defpoints
  6
Continuous
 62
     0
100
AcDbPoint
 10
1793.753615874512
 20
700.8785473509983
 30
0.0
  0
POINT
  5
111
330
107
100
AcDbEntity
  8
Defpoints
  6
Continuous
 62
     0
100
AcDbPoint
 10
1793.753615874512
 20
753.5336272407811
 30
0.0
  0
ENDBLK
  5
113
330
107
100
AcDbEntity
  8
0
 62
     7
100
AcDbBlockEnd
  0
BLOCK
  5
120
330
115
100
AcDbEntity
  8
0
 62
     7
100
AcDbBlockBegin
  2
*D2
 70
     1
 10
0.0
 20
0.0
 30
0.0
  3
*D2
  1

  0
LINE
  5
116
330
115
100
AcDbEntity
  8
0
  6
Continuous
 62
     0
370
    -2
100
AcDbLine
 10
2012.75361587492
 20
403.8785473511433
 30
0.0
 11
2012.75361587492
 21
462.4656508484252
 31
0.0
  0
LINE
  5
117
330
115
100
AcDbEntity
  8
0
  6
Continuous
 62
     0
370
    -2
100
AcDbLine
 10
1924.753615875296
 20
406.8785473507291
 30
0.0
 11
1924.753615875296
 21
462.4656508484252
 31
0.0
  0
LINE
  5
118
330
115
100
AcDbEntity
  8
0
  6
Continuous
 62
     7
370
    -2
100
AcDbLine
 10
1992.75361587492
 20
452.4656508484253
 30
0.0
 11
1985.510282541775
 21
452.4656508484253
 31
0.0
  0
LINE
  5
119
330
115
100
AcDbEntity
  8
0
  6
Continuous
 62
     7
370
    -2
100
AcDbLine
 10
1944.753615875296
 20
452.4656508484253
 30
0.0
 11
1951.996949208441
 21
452.4656508484253
 31
0.0
  0
SOLID
  5
11A
330
115
100
AcDbEntity
  8
0
  6
Continuous
 62
     7
100
AcDbTrace
 10
1992.75361587492
 20
455.7989841817586
 30
0.0
 11
1992.75361587492
 21
449.1323175150919
 31
0.0
 12
2012.75361587492
 22
452.4656508484253
 32
0.0
 13
2012.75361587492
 23
452.4656508484253
 33
0.0
  0
SOLID
  5
11B
330
115
100
AcDbEntity
  8
0
  6
Continuous
 62
     7
100
AcDbTrace
 10
1944.753615875296
 20
455.7989841817586
 30
0.0
 11
1944.753615875296
 21
449.1323175150919
 31
0.0
 12
1924.753615875296
 22
452.4656508484253
 32
0.0
 13
1924.753615875296
 23
452.4656508484253
 33
0.0
  0
MTEXT
  5
11C
330
115
100
AcDbEntity
  8
0
  6
Continuous
 62
     7
100
AcDbMText
 10
1968.753615875108
 20
452.4656508484253
 30
0.0
 40
20.0
 41
0.0
 71
     5
 72
     1
  1
\A1;88
 73
     1
 44
1.0
  0
POINT
  5
11D
330
115
100
AcDbEntity
  8
Defpoints
  6
Continuous
 62
     0
100
AcDbPoint
 10
2012.75361587492
 20
383.8785473511433
 30
0.0
  0
POINT
  5
11E
330
115
100
AcDbEntity
  8
Defpoints
  6
Continuous
 62
     0
100
AcDbPoint
 10
1924.753615875296
 20
386.8785473507291
 30
0.0
  0
POINT
  5
11F
330
115
100
AcDbEntity
  8
Defpoints
  6
Continuous
 62
     0
100
AcDbPoint
 10
1924.753615875296
 20
452.4656508484253
 30
0.0
  0
ENDBLK
  5
121
330
115
100
AcDbEntity
  8
0
 62
     7
100
AcDbBlockEnd
  0
BLOCK
  5
12E
330
123
100
AcDbEntity
  8
0
 62
     7
100
AcDbBlockBegin
  2
*D3
 70
     1
 10
0.0
 20
0.0
 30
0.0
  3
*D3
  1

  0
LINE
  5
124
330
123
100
AcDbEntity
  8
0
  6
Continuous
 62
     0
370
    -2
100
AcDbLine
 10
2248.753615874512
 20
700.8785473509983
 30
0.0
 11
2300.75710876019
 21
700.8785473509983
 31
0.0
  0
LINE
  5
125
330
123
100
AcDbEntity
  8
0
  6
Continuous
 62
     0
370
    -2
100
AcDbLine
 10
2149.817060591616
 20
473.8785473537759
 30
0.0
 11
2300.75710876019
 21
473.8785473537759
 31
0.0
  0
LINE
  5
126
330
123
100
AcDbEntity
  8
0
  6
Continuous
 62
     7
370
    -2
100
AcDbLine
 10
2290.75710876019
 20
680.8785473509983
 30
0.0
 11
2290.75710876019
 21
597.4685473523871
 31
0.0
  0
LINE
  5
127
330
123
100
AcDbEntity
  8
0
  6
Continuous
 62
     7
370
    -2
100
AcDbLine
 10
2290.75710876019
 20
493.8785473537759
 30
0.0
 11
2290.75710876019
 21
577.2885473523871
 31
0.0
  0
SOLID
  5
128
330
123
100
AcDbEntity
  8
0
  6
Continuous
 62
     7
100
AcDbTrace
 10
2287.423775426856
 20
680.8785473509983
 30
0.0
 11
2294.090442093523
 21
680.8785473509983
 31
0.0
 12
2290.75710876019
 22
700.8785473509983
 32
0.0
 13
2290.75710876019
 23
700.8785473509983
 33
0.0
  0
SOLID
  5
129
330
123
100
AcDbEntity
  8
0
  6
Continuous
 62
     7
100
AcDbTrace
 10
2287.423775426856
 20
493.8785473537759
 30
0.0
 11
2294.090442093523
 21
493.8785473537759
 31
0.0
 12
2290.75710876019
 22
473.8785473537759
 32
0.0
 13
2290.75710876019
 23
473.8785473537759
 33
0.0
  0
MTEXT
  5
12A
330
123
100
AcDbEntity
  8
0
  6
Continuous
 62
     7
100
AcDbMText
 10
2290.75710876019
 20
587.3785473523875
 30
0.0
 40
20.0
 41
0.0
 71
     5
 72
     1
  1
\A1;227
 73
     1
 44
1.0
  0
POINT
  5
12B
330
123
100
AcDbEntity
  8
Defpoints
  6
Continuous
 62
     0
100
AcDbPoint
 10
2228.753615874512
 20
700.8785473509983
 30
0.0
  0
POINT
  5
12C
330
123
100
AcDbEntity
  8
Defpoints
  6
Continuous
 62
     0
100
AcDbPoint
 10
2129.817060591616
 20
473.8785473537759
 30
0.0
  0
POINT
  5
12D
330
123
100
AcDbEntity
  8
Defpoints
  6
Continuous
 62
     0
100
AcDbPoint
 10
2290.75710876019
 20
473.8785473537759
 30
0.0
  0
ENDBLK
  5
12F
330
123
100
AcDbEntity
  8
0
 62
     7
100
AcDbBlockEnd
  0
BLOCK
  5
13C
330
131
100
AcDbEntity
  8
0
 62
     7
100
AcDbBlockBegin
  2
*D4
 70
     1
 10
0.0
 20
0.0
 30
0.0
  3
*D4
  1

  0
LINE
  5
132
330
131
100
AcDbEntity
  8
0
  6
Continuous
 62
     0
370
    -2
100
AcDbLine
 10
2118.753615875643
 20
493.8785473537759
 30
0.0
 11
2118.753615875643
 21
594.9143754669568
 31
0.0
  0
LINE
  5
133
330
131
100
AcDbEntity
  8
0
  6
Continuous
 62
     0
370
    -2
100
AcDbLine
 10
1826.773551752437
 20
493.878547353776
 30
0.0
 11
1826.773551752437
 21
594.9143754669568
 31
0.0
  0
LINE
  5
134
330
131
100
AcDbEntity
  8
0
  6
Continuous
 62
     7
370
    -2
100
AcDbLine
 10
2098.753615875643
 20
584.9143754669568
 30
0.0
 11
1999.520250480706
 21
584.9143754669568
 31
0.0
  0
LINE
  5
135
330
131
100
AcDbEntity
  8
0
  6
Continuous
 62
     7
370
    -2
100
AcDbLine
 10
1846.773551752437
 20
584.9143754669568
 30
0.0
 11
1946.006917147373
 21
584.9143754669568
 31
0.0
  0
SOLID
  5
136
330
131
100
AcDbEntity
  8
0
  6
Continuous
 62
     7
100
AcDbTrace
 10
2098.753615875643
 20
588.2477088002901
 30
0.0
 11
2098.753615875643
 21
581.5810421336234
 31
0.0
 12
2118.753615875643
 22
584.9143754669568
 32
0.0
 13
2118.753615875643
 23
584.9143754669568
 33
0.0
  0
SOLID
  5
137
330
131
100
AcDbEntity
  8
0
  6
Continuous
 62
     7
100
AcDbTrace
 10
1846.773551752437
 20
588.2477088002901
 30
0.0
 11
1846.773551752437
 21
581.5810421336234
 31
0.0
 12
1826.773551752437
 22
584.9143754669568
 32
0.0
 13
1826.773551752437
 23
584.9143754669568
 33
0.0
  0
MTEXT
  5
138
330
131
100
AcDbEntity
  8
0
  6
Continuous
 62
     7
100
AcDbMText
 10
1972.76358381404
 20
584.9143754669568
 30
0.0
 40
20.0
 41
0.0
 71
     5
 72
     1
  1
\A1;292
 73
     1
 44
1.0
  0
POINT
  5
139
330
131
100
AcDbEntity
  8
Defpoints
  6
Continuous
 62
     0
100
AcDbPoint
 10
2118.753615875643
 20
473.8785473537759
 30
0.0
  0
POINT
  5
13A
330
131
100
AcDbEntity
  8
Defpoints
  6
Continuous
 62
     0
100
AcDbPoint
 10
1826.773551752437
 20
473.878547353776
 30
0.0
  0
POINT
  5
13B
330
131
100
AcDbEntity
  8
Defpoints
  6
Continuous
 62
     0
100
AcDbPoint
 10
1826.773551752437
 20
584.9143754669568
 30
0.0
  0
ENDBLK
  5
13D
330
131
100
AcDbEntity
  8
0
 62
     7
100
AcDbBlockEnd
  0
ENDSEC
  0
SECTION
  2
ENTITIES
  0
LINE
  5
BE
330
A
100
AcDbEntity
  8
CK_LEVEL_1
  6
Continuous
 62
     7
100
AcDbLine
 10
1708.753615874512
 20
700.8785473509983
 30
0.0
 11
1793.753615874512
 21
700.8785473509983
 31
0.0
  0
LINE
  5
BF
330
A
100
AcDbEntity
  8
CK_LEVEL_1
  6
Continuous
 62
     7
100
AcDbLine
 10
1708.753615874512
 20
270.8785473509984
 30
0.0
 11
2228.753615874512
 21
270.8785473509984
 31
0.0
  0
LINE
  5
C0
330
A
100
AcDbEntity
  8
CK_LEVEL_1
  6
Continuous
 62
     7
100
AcDbLine
 10
1708.753615874512
 20
270.8785473509984
 30
0.0
 11
1708.753615874512
 21
700.8785473509983
 31
0.0
  0
ARC
  5
C1
330
A
100
AcDbEntity
  8
CK_LEVEL_1
  6
Continuous
 62
     7
100
AcDbCircle
 10
1738.631066854912
 20
625.0975015993982
 30
0.0
 40
409.0969620972
100
AcDbArc
 50
338.3065298963966
 51
356.0446738991004
  0
ARC
  5
C2
330
A
100
AcDbEntity
  8
CK_LEVEL_1
  6
Continuous
 62
     7
100
AcDbCircle
 10
1976.125124254411
 20
543.4064803118983
 30
0.0
 40
164.742300792
100
AcDbArc
 50
200.4383622269009
 51
251.830481035006
  0
LINE
  5
C3
330
A
100
AcDbEntity
  8
CK_LEVEL_1
  6
Continuous
 62
     7
100
AcDbLine
 10
2228.753615874512
 20
270.8785473509984
 30
0.0
 11
2228.753615874512
 21
700.8785473509983
 31
0.0
  0
ARC
  5
C4
330
A
100
AcDbEntity
  8
CK_LEVEL_1
  6
Continuous
 62
     7
100
AcDbCircle
 10
1973.030888601812
 20
510.8452140176985
 30
0.0
 40
133.0354445493
100
AcDbArc
 50
248.7221941379949
 51
287.3727877631943
  0
ARC
  5
C5
330
A
100
AcDbEntity
  8
CK_LEVEL_1
  6
Continuous
 62
     7
100
AcDbCircle
 10
1976.361723982611
 20
534.1623311347984
 30
0.0
 40
154.6272468351999
100
AcDbArc
 50
283.6123957816936
 51
337.0538874754001
  0
LINE
  5
C6
330
A
100
AcDbEntity
  8
CK_LEVEL_1
  6
Continuous
 62
     7
100
AcDbLine
 10
2148.753615874511
 20
700.8785473509983
 30
0.0
 11
2228.753615874512
 21
700.8785473509983
 31
0.0
  0
ARC
  5
C7
330
A
100
AcDbEntity
  8
CK_LEVEL_1
  6
Continuous
 62
     7
100
AcDbCircle
 10
431.7536158745124
 20
681.8785473509985
 30
0.0
 40
1717.1051220004
100
AcDbArc
 50
357.1625892959003
 51
0.6339984736985136
  0
LINE
  5
C8
330
A
100
AcDbEntity
  8
CK_LEVEL_1
  6
Continuous
 62
     7
100
AcDbLine
 10
1793.753615874512
 20
630.8785473509986
 30
0.0
 11
1793.753615874512
 21
700.8785473509983
 31
0.0
  0
ARC
  5
C9
330
A
100
AcDbEntity
  8
CK_LEVEL_1
  6
Continuous
 62
     7
100
AcDbCircle
 10
2266.468569145512
 20
646.9579866032983
 30
0.0
 40
472.9883459586998
100
AcDbArc
 50
181.9481696732004
 51
199.9108063311014
  0
DIMENSION
  5
CF
330
A
100
AcDbEntity
  8
0
  6
Continuous
 62
     7
100
AcDbDimension
  2
*D0
 10
2352.770476173005
 20
383.8785473509906
 30
0.0
 11
2352.770476173005
 21
542.3785473509948
 31
0.0
 70
    32
 71
     5
 42
317.0000000000076
  3
STANDARD
100
AcDbAlignedDimension
 13
2228.753615874512
 23
700.8785473509983
 33
0.0
 14
2012.753615874432
 24
383.8785473509907
 34
0.0
 50
90.0
100
AcDbRotatedDimension
1001
ACAD
1000
DSTYLE
1002
{
1070
    41
1040
20.0
1070
    42
1040
20.0
1070
    44
1040
10.0
1070
    47
1040
0.01
1070
    48
1040
-0.01
1070
   140
1040
20.0
1070
   176
1070
     7
1070
   178
1070
     7
1070
   271
1070
     0
1070
   272
1070
     0
1002
}
  0
DIMENSION
  5
106
330
A
100
AcDbEntity
  8
0
  6
Continuous
 62
     7
100
AcDbDimension
  2
*D1
 10
1793.753615874512
 20
753.5336272407811
 30
0.0
 11
1971.253615874512
 21
753.5336272407811
 31
0.0
 70
    32
 71
     5
 42
355.0
  3
STANDARD
100
AcDbAlignedDimension
 13
2148.753615874511
 23
700.8785473509983
 33
0.0
 14
1793.753615874512
 24
700.8785473509983
 34
0.0
100
AcDbRotatedDimension
1001
ACAD
1000
DSTYLE
1002
{
1070
    41
1040
20.0
1070
    42
1040
20.0
1070
    44
1040
10.0
1070
    47
1040
0.01
1070
    48
1040
-0.01
1070
   140
1040
20.0
1070
   176
1070
     7
1070
   178
1070
     7
1070
   271
1070
     0
1070
   272
1070
     0
1002
}
  0
DIMENSION
  5
114
330
A
100
AcDbEntity
  8
0
  6
Continuous
 62
     7
100
AcDbDimension
  2
*D2
 10
1924.753615875296
 20
452.4656508484253
 30
0.0
 11
1968.753615875108
 21
452.4656508484253
 31
0.0
 70
    32
 71
     5
 42
87.99999999962393
  3
STANDARD
100
AcDbAlignedDimension
 13
2012.75361587492
 23
383.8785473511433
 33
0.0
 14
1924.753615875296
 24
386.8785473507291
 34
0.0
100
AcDbRotatedDimension
1001
ACAD
1000
DSTYLE
1002
{
1070
    41
1040
20.0
1070
    42
1040
20.0
1070
    44
1040
10.0
1070
    47
1040
0.01
1070
    48
1040
-0.01
1070
   140
1040
20.0
1070
   176
1070
     7
1070
   178
1070
     7
1070
   271
1070
     0
1070
   272
1070
     0
1002
}
  0
DIMENSION
  5
122
330
A
100
AcDbEntity
  8
0
  6
Continuous
 62
     7
100
AcDbDimension
  2
*D3
 10
2290.75710876019
 20
473.8785473537759
 30
0.0
 11
2290.75710876019
 21
587.3785473523875
 31
0.0
 70
    32
 71
     5
 42
226.9999999972224
  3
STANDARD
100
AcDbAlignedDimension
 13
2228.753615874512
 23
700.8785473509983
 33
0.0
 14
2129.817060591616
 24
473.8785473537759
 34
0.0
 50
90.0
100
AcDbRotatedDimension
1001
ACAD
1000
DSTYLE
1002
{
1070
    41
1040
20.0
1070
    42
1040
20.0
1070
    44
1040
10.0
1070
    47
1040
0.01
1070
    48
1040
-0.01
1070
   140
1040
20.0
1070
   176
1070
     7
1070
   178
1070
     7
1070
   271
1070
     0
1070
   272
1070
     0
1002
}
  0
DIMENSION
  5
130
330
A
100
AcDbEntity
  8
0
  6
Continuous
 62
     7
100
AcDbDimension
  2
*D4
 10
1826.773551752437
 20
584.9143754669568
 30
0.0
 11
1972.76358381404
 21
584.9143754669568
 31
0.0
 70
    32
 71
     5
 42
291.9800641232063
  3
STANDARD
100
AcDbAlignedDimension
 13
2118.753615875643
 23
473.8785473537759
 33
0.0
 14
1826.773551752437
 24
473.878547353776
 34
0.0
100
AcDbRotatedDimension
1001
ACAD
1000
DSTYLE
1002
{
1070
    41
1040
20.0
1070
    42
1040
20.0
1070
    44
1040
10.0
1070
    47
1040
0.01
1070
    48
1040
-0.01
1070
   140
1040
20.0
1070
   176
1070
     7
1070
   178
1070
     7
1070
   271
1070
     0
1070
   272
1070
     0
1002
}
  0
ENDSEC
  0
SECTION
  2
OBJECTS
  0
DICTIONARY
  5
19
330
0
100
AcDbDictionary
281
     1
  3
ACAD_GROUP
350
1A
  3
ACAD_LAYOUT
350
9C
  3
ACAD_MLINESTYLE
350
1B
  3
ACAD_PLOTSETTINGS
350
9D
  3
ACAD_PLOTSTYLENAME
350
9A
  3
AcDbVariableDictionary
350
A6
  3
ASE_INDEX_DICTIONARY
350
A3
  0
DICTIONARY
  5
1A
102
{ACAD_REACTORS
330
19
102
}
330
19
100
AcDbDictionary
281
     1
  0
DICTIONARY
  5
9C
102
{ACAD_REACTORS
330
19
102
}
330
19
100
AcDbDictionary
281
     1
  3
Layout1
350
9F
  3
Model
350
9E
  0
DICTIONARY
  5
1B
102
{ACAD_REACTORS
330
19
102
}
330
19
100
AcDbDictionary
281
     1
  3
STANDARD
350
1C
  0
DICTIONARY
  5
9D
102
{ACAD_REACTORS
330
19
102
}
330
19
100
AcDbDictionary
281
     1
  0
ACDBDICTIONARYWDFLT
  5
9A
102
{ACAD_REACTORS
330
19
102
}
330
19
100
AcDbDictionary
281
     1
  3
Normal
350
9B
100
AcDbDictionaryWithDefault
340
9B
  0
DICTIONARY
  5
A6
102
{ACAD_REACTORS
330
19
102
}
330
19
100
AcDbDictionary
281
     1
  3
DIMASSOC
350
A7
  0
DICTIONARY
  5
A3
102
{ACAD_REACTORS
330
19
102
}
330
19
100
AcDbDictionary
281
     1
  3
ASEBlockHierarchyIndexRecord
350
A5
1001
DCO15
1040
1757741979.439
  0
LAYOUT
  5
9F
102
{ACAD_REACTORS
330
9C
102
}
330
9C
100
AcDbPlotSettings
  1

  2
Canon MP160 Printer
  4

  6

 40
0.0
 41
0.0
 42
0.0
 43
0.0
 44
0.0
 45
0.0
 46
0.0
 47
0.0
 48
0.0
 49
0.0
140
0.0
141
0.0
142
1.0
143
1.0
 70
   688
 72
     0
 73
     0
 74
     5
  7

 75
    16
147
1.0
148
0.0
149
0.0
100
AcDbLayout
  1
Layout1
 70
     0
 71
     1
 10
0.0
 20
0.0
 11
12.0
 21
9.0
 12
0.0
 22
0.0
 32
0.0
 14
1.000000000000000E+20
 24
1.000000000000000E+20
 34
1.000000000000000E+20
 15
-1.000000000000000E+20
 25
-1.000000000000000E+20
 35
-1.000000000000000E+20
146
0.0
 13
0.0
 23
0.0
 33
0.0
 16
1.0
 26
0.0
 36
0.0
 17
0.0
 27
1.0
 37
0.0
 76
     0
330
B
  0
LAYOUT
  5
9E
102
{ACAD_REACTORS
330
9C
102
}
330
9C
100
AcDbPlotSettings
  1

  2
Canon MP160 Printer
  4
A4
  6

 40
4.180416584014892
 41
5.83141803741455
 42
4.180404663085937
 43
3.757080078125
 44
209.9733276367187
 45
296.9683227539062
 46
0.0
 47
0.0
 48
1668.745564562877
 49
252.5445694863689
140
2389.713492196095
141
774.9951465081299
142
1.0
143
65.82054305057777
 70
 11952
 72
     0
 73
     1
 74
     4
  7

 75
     0
147
0.015192825121962
148
-42386.13733989708
149
-6414.63206495377
100
AcDbLayout
  1
Model
 70
     1
 71
     0
 10
0.0
 20
0.0
 11
12.0
 21
9.0
 12
0.0
 22
0.0
 32
0.0
 14
0.0
 24
0.0
 34
0.0
 15
0.0
 25
0.0
 35
0.0
146
0.0
 13
0.0
 23
0.0
 33
0.0
 16
1.0
 26
0.0
 36
0.0
 17
0.0
 27
1.0
 37
0.0
 76
     0
330
A
  0
MLINESTYLE
  5
1C
102
{ACAD_REACTORS
330
1B
102
}
330
1B
100
AcDbMlineStyle
  2
STANDARD
 70
     0
  3

 62
     0
 51
90.0
 52
90.0
 71
     2
 49
0.5
 62
   256
  6
BYLAYER
 49
-0.5
 62
   256
  6
BYLAYER
  0
ACDBPLACEHOLDER
  5
9B
102
{ACAD_REACTORS
330
9A
102
}
330
9A
  0
DICTIONARYVAR
  5
A7
102
{ACAD_REACTORS
330
A6
102
}
330
A6
100
DictionaryVariables
280
     0
  1
1
  0
XRECORD
  5
A5
102
{ACAD_REACTORS
330
A3
102
}
330
A3
100
AcDbXrecord
280
     1
  0
ENDSEC
  0
EOF
