  0
SECTION
  2
HEADER
  9
$ACADVER
  1
AC1015
  9
$ACADMAINTVER
 70
    13
  9
$DWGCODEPAGE
  3
ANSI_1252
  9
$INSBASE
 10
0.0
 20
0.0
 30
0.0
  9
$EXTMIN
 10
-128.934482805294
 20
-71.79208038255206
 30
0.0
  9
$EXTMAX
 10
608.8994426991604
 20
502.0777597265762
 30
0.0
  9
$LIMMIN
 10
0.0
 20
0.0
  9
$LIMMAX
 10
420.0
 20
297.0
  9
$ORTHOMODE
 70
     1
  9
$REGENMODE
 70
     1
  9
$FILLMODE
 70
     1
  9
$QTEXTMODE
 70
     0
  9
$MIRRTEXT
 70
     1
  9
$LTSCALE
 40
1.0
  9
$ATTMODE
 70
     1
  9
$TEXTSIZE
 40
2.5
  9
$TRACEWID
 40
1.0
  9
$TEXTSTYLE
  7
Standard
  9
$CLAYER
  8
0
  9
$CELTYPE
  6
CENTER
  9
$CECOLOR
 62
   256
  9
$CELTSCALE
 40
1.0
  9
$DISPSILH
 70
     0
  9
$DIMSCALE
 40
1.0
  9
$DIMASZ
 40
10.0
  9
$DIMEXO
 40
20.0
  9
$DIMDLI
 40
5.0
  9
$DIMRND
 40
0.0
  9
$DIMDLE
 40
0.0
  9
$DIMEXE
 40
10.0
  9
$DIMTP
 40
0.0
  9
$DIMTM
 40
0.0
  9
$DIMTXT
 40
10.0
  9
$DIMCEN
 40
2.5
  9
$DIMTSZ
 40
0.0
  9
$DIMTOL
 70
     0
  9
$DIMLIM
 70
     0
  9
$DIMTIH
 70
     0
  9
$DIMTOH
 70
     0
  9
$DIMSE1
 70
     0
  9
$DIMSE2
 70
     0
  9
$DIMTAD
 70
     0
  9
$DIMZIN
 70
     1
  9
$DIMBLK
  1

  9
$DIMASO
 70
     1
  9
$DIMSHO
 70
     1
  9
$DIMPOST
  1

  9
$DIMAPOST
  1

  9
$DIMALT
 70
     0
  9
$DIMALTD
 70
     3
  9
$DIMALTF
 40
0.03937007874016
  9
$DIMLFAC
 40
1.0
  9
$DIMTOFL
 70
     0
  9
$DIMTVP
 40
0.0
  9
$DIMTIX
 70
     0
  9
$DIMSOXD
 70
     0
  9
$DIMSAH
 70
     0
  9
$DIMBLK1
  1

  9
$DIMBLK2
  1

  9
$DIMSTYLE
  2
ISO-25
  9
$DIMCLRD
 70
     0
  9
$DIMCLRE
 70
     0
  9
$DIMCLRT
 70
     0
  9
$DIMTFAC
 40
1.0
  9
$DIMGAP
 40
5.0
  9
$DIMJUST
 70
     0
  9
$DIMSD1
 70
     0
  9
$DIMSD2
 70
     0
  9
$DIMTOLJ
 70
     1
  9
$DIMTZIN
 70
     8
  9
$DIMALTZ
 70
     0
  9
$DIMALTTZ
 70
     0
  9
$DIMUPT
 70
     0
  9
$DIMDEC
 70
     0
  9
$DIMTDEC
 70
     0
  9
$DIMALTU
 70
     2
  9
$DIMALTTD
 70
     3
  9
$DIMTXSTY
  7
Standard
  9
$DIMAUNIT
 70
     0
  9
$DIMADEC
 70
     0
  9
$DIMALTRND
 40
0.0
  9
$DIMAZIN
 70
     0
  9
$DIMDSEP
 70
    46
  9
$DIMATFIT
 70
     3
  9
$DIMFRAC
 70
     0
  9
$DIMLDRBLK
  1

  9
$DIMLUNIT
 70
     2
  9
$DIMLWD
 70
    -2
  9
$DIMLWE
 70
    -2
  9
$DIMTMOVE
 70
     0
  9
$LUNITS
 70
     2
  9
$LUPREC
 70
     4
  9
$SKETCHINC
 40
1.0
  9
$FILLETRAD
 40
10.0
  9
$AUNITS
 70
     0
  9
$AUPREC
 70
     0
  9
$MENU
  1
.
  9
$ELEVATION
 40
0.0
  9
$PELEVATION
 40
0.0
  9
$THICKNESS
 40
0.0
  9
$LIMCHECK
 70
     0
  9
$CHAMFERA
 40
10.0
  9
$CHAMFERB
 40
10.0
  9
$CHAMFERC
 40
20.0
  9
$CHAMFERD
 40
0.0
  9
$SKPOLY
 70
     0
  9
$TDCREATE
 40
2456257.915601771
  9
$TDUCREATE
 40
2456257.478101770
  9
$TDUPDATE
 40
2456304.526086701
  9
$TDUUPDATE
 40
2456304.088586701
  9
$TDINDWG
 40
0.0351110995
  9
$TDUSRTIMER
 40
0.0351110995
  9
$USRTIMER
 70
     1
  9
$ANGBASE
 50
0.0
  9
$ANGDIR
 70
     0
  9
$PDMODE
 70
     0
  9
$PDSIZE
 40
0.0
  9
$PLINEWID
 40
0.0
  9
$SPLFRAME
 70
     0
  9
$SPLINETYPE
 70
     6
  9
$SPLINESEGS
 70
     8
  9
$HANDSEED
  5
3B9
  9
$SURFTAB1
 70
     6
  9
$SURFTAB2
 70
     6
  9
$SURFTYPE
 70
     6
  9
$SURFU
 70
     6
  9
$SURFV
 70
     6
  9
$UCSBASE
  2

  9
$UCSNAME
  2

  9
$UCSORG
 10
0.0
 20
0.0
 30
0.0
  9
$UCSXDIR
 10
1.0
 20
0.0
 30
0.0
  9
$UCSYDIR
 10
0.0
 20
1.0
 30
0.0
  9
$UCSORTHOREF
  2

  9
$UCSORTHOVIEW
 70
     0
  9
$UCSORGTOP
 10
0.0
 20
0.0
 30
0.0
  9
$UCSORGBOTTOM
 10
0.0
 20
0.0
 30
0.0
  9
$UCSORGLEFT
 10
0.0
 20
0.0
 30
0.0
  9
$UCSORGRIGHT
 10
0.0
 20
0.0
 30
0.0
  9
$UCSORGFRONT
 10
0.0
 20
0.0
 30
0.0
  9
$UCSORGBACK
 10
0.0
 20
0.0
 30
0.0
  9
$PUCSBASE
  2

  9
$PUCSNAME
  2

  9
$PUCSORG
 10
0.0
 20
0.0
 30
0.0
  9
$PUCSXDIR
 10
1.0
 20
0.0
 30
0.0
  9
$PUCSYDIR
 10
0.0
 20
1.0
 30
0.0
  9
$PUCSORTHOREF
  2

  9
$PUCSORTHOVIEW
 70
     0
  9
$PUCSORGTOP
 10
0.0
 20
0.0
 30
0.0
  9
$PUCSORGBOTTOM
 10
0.0
 20
0.0
 30
0.0
  9
$PUCSORGLEFT
 10
0.0
 20
0.0
 30
0.0
  9
$PUCSORGRIGHT
 10
0.0
 20
0.0
 30
0.0
  9
$PUCSORGFRONT
 10
0.0
 20
0.0
 30
0.0
  9
$PUCSORGBACK
 10
0.0
 20
0.0
 30
0.0
  9
$USERI1
 70
     0
  9
$USERI2
 70
     0
  9
$USERI3
 70
     0
  9
$USERI4
 70
     0
  9
$USERI5
 70
     0
  9
$USERR1
 40
0.0
  9
$USERR2
 40
0.0
  9
$USERR3
 40
0.0
  9
$USERR4
 40
0.0
  9
$USERR5
 40
0.0
  9
$WORLDVIEW
 70
     1
  9
$SHADEDGE
 70
     3
  9
$SHADEDIF
 70
    70
  9
$TILEMODE
 70
     1
  9
$MAXACTVP
 70
    64
  9
$PINSBASE
 10
0.0
 20
0.0
 30
0.0
  9
$PLIMCHECK
 70
     0
  9
$PEXTMIN
 10
1.000000000000000E+20
 20
1.000000000000000E+20
 30
1.000000000000000E+20
  9
$PEXTMAX
 10
-1.000000000000000E+20
 20
-1.000000000000000E+20
 30
-1.000000000000000E+20
  9
$PLIMMIN
 10
0.0
 20
0.0
  9
$PLIMMAX
 10
420.0
 20
297.0
  9
$UNITMODE
 70
     0
  9
$VISRETAIN
 70
     1
  9
$PLINEGEN
 70
     0
  9
$PSLTSCALE
 70
     1
  9
$TREEDEPTH
 70
  3020
  9
$CMLSTYLE
  2
Standard
  9
$CMLJUST
 70
     0
  9
$CMLSCALE
 40
20.0
  9
$PROXYGRAPHICS
 70
     1
  9
$MEASUREMENT
 70
     1
  9
$CELWEIGHT
370
    -1
  9
$ENDCAPS
280
     0
  9
$JOINSTYLE
280
     0
  9
$LWDISPLAY
290
     0
  9
$INSUNITS
 70
     4
  9
$HYPERLINKBASE
  1

  9
$STYLESHEET
  1

  9
$XEDIT
290
     1
  9
$CEPSNTYPE
380
     0
  9
$PSTYLEMODE
290
     1
  9
$FINGERPRINTGUID
  2
{47CC5D8B-58E8-4F6E-9096-FC3482B57D5A}
  9
$VERSIONGUID
  2
{B1BB9DE3-20B0-42E8-8733-9DEE5205F844}
  9
$EXTNAMES
290
     1
  9
$PSVPSCALE
 40
0.0
  9
$OLESTARTUP
290
     0
  0
ENDSEC
  0
SECTION
  2
CLASSES
  0
CLASS
  1
ACDBDICTIONARYWDFLT
  2
AcDbDictionaryWithDefault
  3
AutoCAD 2000
 90
        0
280
     0
281
     0
  0
CLASS
  1
ACDBPLACEHOLDER
  2
AcDbPlaceHolder
  3
AutoCAD 2000
 90
        0
280
     0
281
     0
  0
CLASS
  1
LAYOUT
  2
AcDbLayout
  3
AutoCAD 2000
 90
        0
280
     0
281
     0
  0
CLASS
  1
DICTIONARYVAR
  2
AcDbDictionaryVar
  3
AutoCAD 2000
 90
        0
280
     0
281
     0
  0
CLASS
  1
DIMASSOC
  2
AcDbDimAssoc
  3
"AcDbDimAssoc|Product Desc:     AcDim ARX App For Dimension|Company:          Autodesk, Inc.|WEB Address:      www.autodesk.com"
 90
        0
280
     0
281
     0
  0
ENDSEC
  0
SECTION
  2
TABLES
  0
TABLE
  2
VPORT
  5
8
330
0
100
AcDbSymbolTable
 70
     6
  0
VPORT
  5
3B8
330
8
100
AcDbSymbolTableRecord
100
AcDbViewportTableRecord
  2
*Active
 70
     0
 10
0.0
 20
0.0
 11
1.0
 21
1.0
 12
239.9824833828448
 22
215.1445477411646
 13
0.0
 23
0.0
 14
10.0
 24
10.0
 15
10.0
 25
10.0
 16
0.0
 26
0.0
 36
1.0
 17
0.0
 27
0.0
 37
0.0
 40
580.400059366759
 41
2.424812030075187
 42
50.0
 43
0.0
 44
0.0
 50
0.0
 51
0.0
 71
     0
 72
   100
 73
     1
 74
     3
 75
     0
 76
     0
 77
     0
 78
     0
281
     0
 65
     1
110
0.0
120
0.0
130
0.0
111
1.0
121
0.0
131
0.0
112
0.0
122
1.0
132
0.0
 79
     0
146
0.0
  0
ENDTAB
  0
TABLE
  2
LTYPE
  5
5
330
0
100
AcDbSymbolTable
 70
     2
  0
LTYPE
  5
14
330
5
100
AcDbSymbolTableRecord
100
AcDbLinetypeTableRecord
  2
ByBlock
 70
     0
  3

 72
    65
 73
     0
 40
0.0
  0
LTYPE
  5
15
330
5
100
AcDbSymbolTableRecord
100
AcDbLinetypeTableRecord
  2
ByLayer
 70
     0
  3

 72
    65
 73
     0
 40
0.0
  0
LTYPE
  5
16
330
5
100
AcDbSymbolTableRecord
100
AcDbLinetypeTableRecord
  2
Continuous
 70
     0
  3
Solid line
 72
    65
 73
     0
 40
0.0
  0
LTYPE
  5
33D
330
5
100
AcDbSymbolTableRecord
100
AcDbLinetypeTableRecord
  2
CENTER
 70
     0
  3
Center ____ _ ____ _ ____ _ ____ _ ____ _ ____
 72
    65
 73
     4
 40
50.8
 49
31.75
 74
     0
 49
-6.349999999999999
 74
     0
 49
6.349999999999999
 74
     0
 49
-6.349999999999999
 74
     0
  0
ENDTAB
  0
TABLE
  2
LAYER
  5
2
330
0
100
AcDbSymbolTable
 70
     4
  0
LAYER
  5
10
330
2
100
AcDbSymbolTableRecord
100
AcDbLayerTableRecord
  2
0
 70
     0
 62
     7
  6
Continuous
370
    -3
390
F
  0
LAYER
  5
2B
330
2
100
AcDbSymbolTableRecord
100
AcDbLayerTableRecord
  2
CK_LEVEL_1
 70
     0
 62
     7
  6
Continuous
370
    -3
390
F
  0
LAYER
  5
55
330
2
100
AcDbSymbolTableRecord
100
AcDbLayerTableRecord
  2
Dimensions
 70
     0
 62
     7
  6
Continuous
370
    -3
390
F
  0
LAYER
  5
57
330
2
100
AcDbSymbolTableRecord
100
AcDbLayerTableRecord
  2
Defpoints
 70
     0
 62
     7
  6
Continuous
290
     0
370
    -3
390
F
  0
ENDTAB
  0
TABLE
  2
STYLE
  5
3
330
0
100
AcDbSymbolTable
 70
     1
  0
STYLE
  5
11
330
3
100
AcDbSymbolTableRecord
100
AcDbTextStyleTableRecord
  2
Standard
 70
     0
 40
0.0
 41
1.0
 50
0.0
 71
     0
 42
2.5
  3
txt
  4

  0
ENDTAB
  0
TABLE
  2
VIEW
  5
6
330
0
100
AcDbSymbolTable
 70
     0
  0
ENDTAB
  0
TABLE
  2
UCS
  5
7
330
0
100
AcDbSymbolTable
 70
     0
  0
ENDTAB
  0
TABLE
  2
APPID
  5
9
330
0
100
AcDbSymbolTable
 70
     1
  0
APPID
  5
12
330
9
100
AcDbSymbolTableRecord
100
AcDbRegAppTableRecord
  2
ACAD
 70
     0
  0
ENDTAB
  0
TABLE
  2
DIMSTYLE
  5
A
330
0
100
AcDbSymbolTable
 70
     3
100
AcDbDimStyleTable
 71
     1
340
27
  0
DIMSTYLE
105
27
102
{ACAD_REACTORS
330
56
330
71
330
8B
330
A5
330
BF
330
D9
330
F5
330
129
330
19D
330
1B7
330
1D1
330
1EB
330
27D
330
2F8
330
312
102
}
330
A
100
AcDbSymbolTableRecord
100
AcDbDimStyleTableRecord
  2
ISO-25
 70
     0
 41
10.0
 42
20.0
 43
5.0
 44
10.0
 73
     0
 74
     0
 78
     1
140
10.0
141
2.5
143
0.03937007874016
147
5.0
171
     3
271
     0
272
     0
274
     3
284
     8
340
11
  0
DIMSTYLE
105
2C
330
A
100
AcDbSymbolTableRecord
100
AcDbDimStyleTableRecord
  2
STANDARD
 70
     0
340
11
  0
DIMSTYLE
105
33E
330
A
100
AcDbSymbolTableRecord
100
AcDbDimStyleTableRecord
  2
Hull templates
 70
     0
 41
10.0
 42
20.0
 43
5.0
 44
10.0
140
10.0
147
5.0
271
     0
272
     0
340
11
  0
ENDTAB
  0
TABLE
  2
BLOCK_RECORD
  5
1
330
0
100
AcDbSymbolTable
 70
    17
  0
BLOCK_RECORD
  5
1F
330
1
100
AcDbSymbolTableRecord
100
AcDbBlockTableRecord
  2
*Model_Space
340
22
  0
BLOCK_RECORD
  5
1B
330
1
100
AcDbSymbolTableRecord
100
AcDbBlockTableRecord
  2
*Paper_Space
340
1E
  0
BLOCK_RECORD
  5
23
330
1
100
AcDbSymbolTableRecord
100
AcDbBlockTableRecord
  2
*Paper_Space0
340
26
  0
BLOCK_RECORD
  5
58
330
1
100
AcDbSymbolTableRecord
100
AcDbBlockTableRecord
  2
*D1
340
0
  0
BLOCK_RECORD
  5
72
330
1
100
AcDbSymbolTableRecord
100
AcDbBlockTableRecord
  2
*D2
340
0
  0
BLOCK_RECORD
  5
8C
330
1
100
AcDbSymbolTableRecord
100
AcDbBlockTableRecord
  2
*D3
340
0
  0
BLOCK_RECORD
  5
A6
330
1
100
AcDbSymbolTableRecord
100
AcDbBlockTableRecord
  2
*D4
340
0
  0
BLOCK_RECORD
  5
C0
330
1
100
AcDbSymbolTableRecord
100
AcDbBlockTableRecord
  2
*D5
340
0
  0
BLOCK_RECORD
  5
DA
330
1
100
AcDbSymbolTableRecord
100
AcDbBlockTableRecord
  2
*D6
340
0
  0
BLOCK_RECORD
  5
F6
330
1
100
AcDbSymbolTableRecord
100
AcDbBlockTableRecord
  2
*D7
340
0
  0
BLOCK_RECORD
  5
12A
330
1
100
AcDbSymbolTableRecord
100
AcDbBlockTableRecord
  2
*D8
340
0
  0
BLOCK_RECORD
  5
19E
330
1
100
AcDbSymbolTableRecord
100
AcDbBlockTableRecord
  2
*D9
340
0
  0
BLOCK_RECORD
  5
1B8
330
1
100
AcDbSymbolTableRecord
100
AcDbBlockTableRecord
  2
*D10
340
0
  0
BLOCK_RECORD
  5
1D2
330
1
100
AcDbSymbolTableRecord
100
AcDbBlockTableRecord
  2
*D11
340
0
  0
BLOCK_RECORD
  5
1EC
330
1
100
AcDbSymbolTableRecord
100
AcDbBlockTableRecord
  2
*D12
340
0
  0
BLOCK_RECORD
  5
27E
330
1
100
AcDbSymbolTableRecord
100
AcDbBlockTableRecord
  2
*D13
340
0
  0
BLOCK_RECORD
  5
2F9
330
1
100
AcDbSymbolTableRecord
100
AcDbBlockTableRecord
  2
*D14
340
0
  0
BLOCK_RECORD
  5
313
330
1
100
AcDbSymbolTableRecord
100
AcDbBlockTableRecord
  2
*D15
340
0
  0
ENDTAB
  0
ENDSEC
  0
SECTION
  2
BLOCKS
  0
BLOCK
  5
20
330
1F
100
AcDbEntity
  8
0
100
AcDbBlockBegin
  2
*Model_Space
 70
     0
 10
0.0
 20
0.0
 30
0.0
  3
*Model_Space
  1

  0
ENDBLK
  5
21
330
1F
100
AcDbEntity
  8
0
100
AcDbBlockEnd
  0
BLOCK
  5
1C
330
1B
100
AcDbEntity
 67
     1
  8
0
100
AcDbBlockBegin
  2
*Paper_Space
 70
     0
 10
0.0
 20
0.0
 30
0.0
  3
*Paper_Space
  1

  0
ENDBLK
  5
1D
330
1B
100
AcDbEntity
 67
     1
  8
0
100
AcDbBlockEnd
  0
BLOCK
  5
24
330
23
100
AcDbEntity
  8
0
100
AcDbBlockBegin
  2
*Paper_Space0
 70
     0
 10
0.0
 20
0.0
 30
0.0
  3
*Paper_Space0
  1

  0
ENDBLK
  5
25
330
23
100
AcDbEntity
  8
0
100
AcDbBlockEnd
  0
BLOCK
  5
63
330
58
100
AcDbEntity
  8
0
100
AcDbBlockBegin
  2
*D1
 70
     1
 10
0.0
 20
0.0
 30
0.0
  3
*D1
  1

  0
LINE
  5
352
330
58
100
AcDbEntity
  8
Dimensions
 62
     0
370
    -2
100
AcDbLine
 10
84.99999966158611
 20
426.9312231373655
 30
0.0
 11
84.99999966158611
 21
416.9312231373655
 31
0.0
  0
LINE
  5
353
330
58
100
AcDbEntity
  8
Dimensions
 62
     0
370
    -2
100
AcDbLine
 10
440.100301055349
 20
426.9312231373655
 30
0.0
 11
440.100301055349
 21
416.9312231373655
 31
0.0
  0
LINE
  5
354
330
58
100
AcDbEntity
  8
Dimensions
 62
     0
370
    -2
100
AcDbLine
 10
94.99999966158611
 20
406.9312231373656
 30
0.0
 11
168.2326594915731
 21
406.9312231373656
 31
0.0
  0
LINE
  5
355
330
58
100
AcDbEntity
  8
Dimensions
 62
     0
370
    -2
100
AcDbLine
 10
430.1003010553491
 20
406.9312231373656
 30
0.0
 11
204.8993261582398
 21
406.9312231373656
 31
0.0
  0
SOLID
  5
356
330
58
100
AcDbEntity
  8
Dimensions
 62
     0
100
AcDbTrace
 10
94.99999966158611
 20
408.5978898040322
 30
0.0
 11
94.99999966158611
 21
405.2645564706988
 31
0.0
 12
84.99999966158611
 22
406.9312231373656
 32
0.0
 13
84.99999966158611
 23
406.9312231373656
 33
0.0
  0
SOLID
  5
357
330
58
100
AcDbEntity
  8
Dimensions
 62
     0
100
AcDbTrace
 10
430.1003010553491
 20
408.5978898040322
 30
0.0
 11
430.1003010553491
 21
405.2645564706988
 31
0.0
 12
440.100301055349
 22
406.9312231373656
 32
0.0
 13
440.100301055349
 23
406.9312231373656
 33
0.0
  0
MTEXT
  5
358
330
58
100
AcDbEntity
  8
Dimensions
 62
     0
100
AcDbMText
 10
186.5659928249065
 20
406.9312231373656
 30
0.0
 40
10.0
 41
0.0
 71
     5
 72
     1
  1
\A1;355
 73
     1
 44
1.0
  0
POINT
  5
359
330
58
100
AcDbEntity
  8
Defpoints
 62
     0
100
AcDbPoint
 10
84.99999966158611
 20
406.9312231373656
 30
0.0
  0
POINT
  5
35A
330
58
100
AcDbEntity
  8
Defpoints
 62
     0
100
AcDbPoint
 10
440.100301055349
 20
406.9312231373655
 30
0.0
  0
POINT
  5
35B
330
58
100
AcDbEntity
  8
Defpoints
 62
     0
100
AcDbPoint
 10
440.100301055349
 20
406.9312231373656
 30
0.0
  0
ENDBLK
  5
64
330
58
100
AcDbEntity
  8
0
100
AcDbBlockEnd
  0
BLOCK
  5
7D
330
72
100
AcDbEntity
  8
0
100
AcDbBlockBegin
  2
*D2
 70
     1
 10
0.0
 20
0.0
 30
0.0
  3
*D2
  1

  0
LINE
  5
35C
330
72
100
AcDbEntity
  8
Dimensions
 62
     0
370
    -2
100
AcDbLine
 10
84.99999966158611
 20
340.0000010199655
 30
0.0
 11
84.99999966158611
 21
346.9312231373655
 31
0.0
  0
LINE
  5
35D
330
72
100
AcDbEntity
  8
Dimensions
 62
     0
370
    -2
100
AcDbLine
 10
439.2536427045631
 20
376.9312231373655
 30
0.0
 11
439.2536427045631
 21
366.9312231373655
 31
0.0
  0
LINE
  5
35E
330
72
100
AcDbEntity
  8
Dimensions
 62
     0
370
    -2
100
AcDbLine
 10
94.99999966158611
 20
356.9312231373655
 30
0.0
 11
169.3227909822836
 21
356.9312231373655
 31
0.0
  0
LINE
  5
35F
330
72
100
AcDbEntity
  8
Dimensions
 62
     0
370
    -2
100
AcDbLine
 10
429.2536427045631
 20
356.9312231373655
 30
0.0
 11
205.9894576489504
 21
356.9312231373655
 31
0.0
  0
SOLID
  5
360
330
72
100
AcDbEntity
  8
Dimensions
 62
     0
100
AcDbTrace
 10
94.99999966158611
 20
358.5978898040322
 30
0.0
 11
94.99999966158611
 21
355.2645564706988
 31
0.0
 12
84.99999966158611
 22
356.9312231373655
 32
0.0
 13
84.99999966158611
 23
356.9312231373655
 33
0.0
  0
SOLID
  5
361
330
72
100
AcDbEntity
  8
Dimensions
 62
     0
100
AcDbTrace
 10
429.2536427045631
 20
358.5978898040322
 30
0.0
 11
429.2536427045631
 21
355.2645564706988
 31
0.0
 12
439.2536427045631
 22
356.9312231373655
 32
0.0
 13
439.2536427045631
 23
356.9312231373655
 33
0.0
  0
MTEXT
  5
362
330
72
100
AcDbEntity
  8
Dimensions
 62
     0
100
AcDbMText
 10
187.656124315617
 20
356.9312231373655
 30
0.0
 40
10.0
 41
0.0
 71
     5
 72
     1
  1
\A1;354
 73
     1
 44
1.0
  0
POINT
  5
363
330
72
100
AcDbEntity
  8
Defpoints
 62
     0
100
AcDbPoint
 10
84.99999966158611
 20
360.0000010199655
 30
0.0
  0
POINT
  5
364
330
72
100
AcDbEntity
  8
Defpoints
 62
     0
100
AcDbPoint
 10
439.2536427045631
 20
356.9312231373655
 30
0.0
  0
POINT
  5
365
330
72
100
AcDbEntity
  8
Defpoints
 62
     0
100
AcDbPoint
 10
439.2536427045631
 20
356.9312231373655
 30
0.0
  0
ENDBLK
  5
7E
330
72
100
AcDbEntity
  8
0
100
AcDbBlockEnd
  0
BLOCK
  5
97
330
8C
100
AcDbEntity
  8
0
100
AcDbBlockBegin
  2
*D3
 70
     1
 10
0.0
 20
0.0
 30
0.0
  3
*D3
  1

  0
LINE
  5
366
330
8C
100
AcDbEntity
  8
Dimensions
 62
     0
370
    -2
100
AcDbLine
 10
89.80844573289834
 20
326.9312231373656
 30
0.0
 11
89.80844573289834
 21
316.9312231373655
 31
0.0
  0
LINE
  5
367
330
8C
100
AcDbEntity
  8
Dimensions
 62
     0
370
    -2
100
AcDbLine
 10
436.2322153329698
 20
326.9312231373655
 30
0.0
 11
436.2322153329698
 21
316.9312231373655
 31
0.0
  0
LINE
  5
368
330
8C
100
AcDbEntity
  8
Dimensions
 62
     0
370
    -2
100
AcDbLine
 10
99.80844573289836
 20
306.9312231373655
 30
0.0
 11
169.3227909822836
 21
306.9312231373655
 31
0.0
  0
LINE
  5
369
330
8C
100
AcDbEntity
  8
Dimensions
 62
     0
370
    -2
100
AcDbLine
 10
426.2322153329697
 20
306.9312231373655
 30
0.0
 11
205.9894576489504
 21
306.9312231373655
 31
0.0
  0
SOLID
  5
36A
330
8C
100
AcDbEntity
  8
Dimensions
 62
     0
100
AcDbTrace
 10
99.80844573289836
 20
308.5978898040322
 30
0.0
 11
99.80844573289836
 21
305.2645564706988
 31
0.0
 12
89.80844573289834
 22
306.9312231373655
 32
0.0
 13
89.80844573289834
 23
306.9312231373655
 33
0.0
  0
SOLID
  5
36B
330
8C
100
AcDbEntity
  8
Dimensions
 62
     0
100
AcDbTrace
 10
426.2322153329697
 20
308.5978898040322
 30
0.0
 11
426.2322153329697
 21
305.2645564706988
 31
0.0
 12
436.2322153329698
 22
306.9312231373655
 32
0.0
 13
436.2322153329698
 23
306.9312231373655
 33
0.0
  0
MTEXT
  5
36C
330
8C
100
AcDbEntity
  8
Dimensions
 62
     0
100
AcDbMText
 10
187.656124315617
 20
306.9312231373655
 30
0.0
 40
10.0
 41
0.0
 71
     5
 72
     1
  1
\A1;346
 73
     1
 44
1.0
  0
POINT
  5
36D
330
8C
100
AcDbEntity
  8
Defpoints
 62
     0
100
AcDbPoint
 10
89.80844573289834
 20
306.9312231373655
 30
0.0
  0
POINT
  5
36E
330
8C
100
AcDbEntity
  8
Defpoints
 62
     0
100
AcDbPoint
 10
436.2322153329698
 20
306.9312231373655
 30
0.0
  0
POINT
  5
36F
330
8C
100
AcDbEntity
  8
Defpoints
 62
     0
100
AcDbPoint
 10
436.2322153329698
 20
306.9312231373655
 30
0.0
  0
ENDBLK
  5
98
330
8C
100
AcDbEntity
  8
0
100
AcDbBlockEnd
  0
BLOCK
  5
B1
330
A6
100
AcDbEntity
  8
0
100
AcDbBlockBegin
  2
*D4
 70
     1
 10
0.0
 20
0.0
 30
0.0
  3
*D4
  1

  0
LINE
  5
370
330
A6
100
AcDbEntity
  8
Dimensions
 62
     0
370
    -2
100
AcDbLine
 10
99.9795733011647
 20
276.9312231373656
 30
0.0
 11
99.9795733011647
 21
266.9312231373655
 31
0.0
  0
LINE
  5
371
330
A6
100
AcDbEntity
  8
Dimensions
 62
     0
370
    -2
100
AcDbLine
 10
427.2380193625936
 20
276.9312231373655
 30
0.0
 11
427.2380193625936
 21
266.9312231373655
 31
0.0
  0
LINE
  5
372
330
A6
100
AcDbEntity
  8
Dimensions
 62
     0
370
    -2
100
AcDbLine
 10
109.9795733011647
 20
256.9312231373655
 30
0.0
 11
172.5931887311823
 21
256.9312231373655
 31
0.0
  0
LINE
  5
373
330
A6
100
AcDbEntity
  8
Dimensions
 62
     0
370
    -2
100
AcDbLine
 10
417.2380193625937
 20
256.9312231373655
 30
0.0
 11
209.2598553978489
 21
256.9312231373655
 31
0.0
  0
SOLID
  5
374
330
A6
100
AcDbEntity
  8
Dimensions
 62
     0
100
AcDbTrace
 10
109.9795733011647
 20
258.5978898040322
 30
0.0
 11
109.9795733011647
 21
255.2645564706989
 31
0.0
 12
99.9795733011647
 22
256.9312231373655
 32
0.0
 13
99.9795733011647
 23
256.9312231373655
 33
0.0
  0
SOLID
  5
375
330
A6
100
AcDbEntity
  8
Dimensions
 62
     0
100
AcDbTrace
 10
417.2380193625937
 20
258.5978898040322
 30
0.0
 11
417.2380193625937
 21
255.2645564706989
 31
0.0
 12
427.2380193625936
 22
256.9312231373655
 32
0.0
 13
427.2380193625936
 23
256.9312231373655
 33
0.0
  0
MTEXT
  5
376
330
A6
100
AcDbEntity
  8
Dimensions
 62
     0
100
AcDbMText
 10
190.9265220645156
 20
256.9312231373655
 30
0.0
 40
10.0
 41
0.0
 71
     5
 72
     1
  1
\A1;327
 73
     1
 44
1.0
  0
POINT
  5
377
330
A6
100
AcDbEntity
  8
Defpoints
 62
     0
100
AcDbPoint
 10
99.9795733011647
 20
256.9312231373655
 30
0.0
  0
POINT
  5
378
330
A6
100
AcDbEntity
  8
Defpoints
 62
     0
100
AcDbPoint
 10
427.2380193625936
 20
256.9312231373655
 30
0.0
  0
POINT
  5
379
330
A6
100
AcDbEntity
  8
Defpoints
 62
     0
100
AcDbPoint
 10
427.2380193625936
 20
256.9312231373655
 30
0.0
  0
ENDBLK
  5
B2
330
A6
100
AcDbEntity
  8
0
100
AcDbBlockEnd
  0
BLOCK
  5
CB
330
C0
100
AcDbEntity
  8
0
100
AcDbBlockBegin
  2
*D5
 70
     1
 10
0.0
 20
0.0
 30
0.0
  3
*D5
  1

  0
LINE
  5
37A
330
C0
100
AcDbEntity
  8
Dimensions
 62
     0
370
    -2
100
AcDbLine
 10
116.2520281695776
 20
186.9312231373655
 30
0.0
 11
116.2520281695776
 21
196.9312231373655
 31
0.0
  0
LINE
  5
37B
330
C0
100
AcDbEntity
  8
Dimensions
 62
     0
370
    -2
100
AcDbLine
 10
411.5404542994859
 20
226.9312231373655
 30
0.0
 11
411.5404542994859
 21
216.9312231373655
 31
0.0
  0
LINE
  5
37C
330
C0
100
AcDbEntity
  8
Dimensions
 62
     0
370
    -2
100
AcDbLine
 10
126.2520281695777
 20
206.9312231373655
 30
0.0
 11
170.4129224729942
 21
206.9312231373655
 31
0.0
  0
LINE
  5
37D
330
C0
100
AcDbEntity
  8
Dimensions
 62
     0
370
    -2
100
AcDbLine
 10
401.5404542994859
 20
206.9312231373655
 30
0.0
 11
207.0795891396608
 21
206.9312231373655
 31
0.0
  0
SOLID
  5
37E
330
C0
100
AcDbEntity
  8
Dimensions
 62
     0
100
AcDbTrace
 10
126.2520281695777
 20
208.5978898040321
 30
0.0
 11
126.2520281695777
 21
205.2645564706988
 31
0.0
 12
116.2520281695776
 22
206.9312231373655
 32
0.0
 13
116.2520281695776
 23
206.9312231373655
 33
0.0
  0
SOLID
  5
37F
330
C0
100
AcDbEntity
  8
Dimensions
 62
     0
100
AcDbTrace
 10
401.5404542994859
 20
208.5978898040321
 30
0.0
 11
401.5404542994859
 21
205.2645564706988
 31
0.0
 12
411.5404542994859
 22
206.9312231373655
 32
0.0
 13
411.5404542994859
 23
206.9312231373655
 33
0.0
  0
MTEXT
  5
380
330
C0
100
AcDbEntity
  8
Dimensions
 62
     0
100
AcDbMText
 10
188.7462558063275
 20
206.9312231373655
 30
0.0
 40
10.0
 41
0.0
 71
     5
 72
     1
  1
\A1;295
 73
     1
 44
1.0
  0
POINT
  5
381
330
C0
100
AcDbEntity
  8
Defpoints
 62
     0
100
AcDbPoint
 10
116.2520281695776
 20
206.9312231373655
 30
0.0
  0
POINT
  5
382
330
C0
100
AcDbEntity
  8
Defpoints
 62
     0
100
AcDbPoint
 10
411.5404542994859
 20
206.9312231373655
 30
0.0
  0
POINT
  5
383
330
C0
100
AcDbEntity
  8
Defpoints
 62
     0
100
AcDbPoint
 10
411.5404542994859
 20
206.9312231373655
 30
0.0
  0
ENDBLK
  5
CC
330
C0
100
AcDbEntity
  8
0
100
AcDbBlockEnd
  0
BLOCK
  5
E5
330
DA
100
AcDbEntity
  8
0
100
AcDbBlockBegin
  2
*D6
 70
     1
 10
0.0
 20
0.0
 30
0.0
  3
*D6
  1

  0
LINE
  5
384
330
DA
100
AcDbEntity
  8
Dimensions
 62
     0
370
    -2
100
AcDbLine
 10
149.9942269671397
 20
176.9312231373655
 30
0.0
 11
149.9942269671397
 21
166.9312231373655
 31
0.0
  0
LINE
  5
385
330
DA
100
AcDbEntity
  8
Dimensions
 62
     0
370
    -2
100
AcDbLine
 10
379.852119150376
 20
176.9312231373655
 30
0.0
 11
379.852119150376
 21
166.9312231373655
 31
0.0
  0
LINE
  5
386
330
DA
100
AcDbEntity
  8
Dimensions
 62
     0
370
    -2
100
AcDbLine
 10
159.9942269671397
 20
156.9312231373655
 30
0.0
 11
187.5982445508211
 21
156.9312231373655
 31
0.0
  0
LINE
  5
387
330
DA
100
AcDbEntity
  8
Dimensions
 62
     0
370
    -2
100
AcDbLine
 10
369.852119150376
 20
156.9312231373655
 30
0.0
 11
222.5982445508211
 21
156.9312231373655
 31
0.0
  0
SOLID
  5
388
330
DA
100
AcDbEntity
  8
Dimensions
 62
     0
100
AcDbTrace
 10
159.9942269671397
 20
158.5978898040321
 30
0.0
 11
159.9942269671397
 21
155.2645564706988
 31
0.0
 12
149.9942269671397
 22
156.9312231373655
 32
0.0
 13
149.9942269671397
 23
156.9312231373655
 33
0.0
  0
SOLID
  5
389
330
DA
100
AcDbEntity
  8
Dimensions
 62
     0
100
AcDbTrace
 10
369.852119150376
 20
158.5978898040321
 30
0.0
 11
369.852119150376
 21
155.2645564706988
 31
0.0
 12
379.852119150376
 22
156.9312231373655
 32
0.0
 13
379.852119150376
 23
156.9312231373655
 33
0.0
  0
MTEXT
  5
38A
330
DA
100
AcDbEntity
  8
Dimensions
 62
     0
100
AcDbMText
 10
205.0982445508211
 20
156.9312231373655
 30
0.0
 40
10.0
 41
0.0
 71
     5
 72
     1
  1
\A1;230
 73
     1
 44
1.0
  0
POINT
  5
38B
330
DA
100
AcDbEntity
  8
Defpoints
 62
     0
100
AcDbPoint
 10
149.9942269671397
 20
156.9312231373655
 30
0.0
  0
POINT
  5
38C
330
DA
100
AcDbEntity
  8
Defpoints
 62
     0
100
AcDbPoint
 10
379.852119150376
 20
156.9312231373655
 30
0.0
  0
POINT
  5
38D
330
DA
100
AcDbEntity
  8
Defpoints
 62
     0
100
AcDbPoint
 10
379.852119150376
 20
156.9312231373655
 30
0.0
  0
ENDBLK
  5
E6
330
DA
100
AcDbEntity
  8
0
100
AcDbBlockEnd
  0
BLOCK
  5
101
330
F6
100
AcDbEntity
  8
0
100
AcDbBlockBegin
  2
*D7
 70
     1
 10
0.0
 20
0.0
 30
0.0
  3
*D7
  1

  0
LINE
  5
3AC
330
F6
100
AcDbEntity
  8
Dimensions
 62
     0
370
    -2
100
AcDbLine
 10
181.5077172433207
 20
151.9312231373655
 30
0.0
 11
181.5077172433207
 21
141.9312231373655
 31
0.0
  0
LINE
  5
3AD
330
F6
100
AcDbEntity
  8
Dimensions
 62
     0
370
    -2
100
AcDbLine
 10
349.1929716079523
 20
151.9312231373655
 30
0.0
 11
349.1929716079523
 21
141.9312231373655
 31
0.0
  0
LINE
  5
3AE
330
F6
100
AcDbEntity
  8
Dimensions
 62
     0
370
    -2
100
AcDbLine
 10
191.5077172433207
 20
131.9312231373655
 30
0.0
 11
223.3158183545623
 21
131.9312231373655
 31
0.0
  0
LINE
  5
3AF
330
F6
100
AcDbEntity
  8
Dimensions
 62
     0
370
    -2
100
AcDbLine
 10
339.1929716079523
 20
131.9312231373655
 30
0.0
 11
256.6491516878956
 21
131.9312231373655
 31
0.0
  0
SOLID
  5
3B0
330
F6
100
AcDbEntity
  8
Dimensions
 62
     0
100
AcDbTrace
 10
191.5077172433207
 20
133.5978898040321
 30
0.0
 11
191.5077172433207
 21
130.2645564706989
 31
0.0
 12
181.5077172433207
 22
131.9312231373655
 32
0.0
 13
181.5077172433207
 23
131.9312231373655
 33
0.0
  0
SOLID
  5
3B1
330
F6
100
AcDbEntity
  8
Dimensions
 62
     0
100
AcDbTrace
 10
339.1929716079523
 20
133.5978898040321
 30
0.0
 11
339.1929716079523
 21
130.2645564706989
 31
0.0
 12
349.1929716079523
 22
131.9312231373655
 32
0.0
 13
349.1929716079523
 23
131.9312231373655
 33
0.0
  0
MTEXT
  5
3B2
330
F6
100
AcDbEntity
  8
Dimensions
 62
     0
100
AcDbMText
 10
239.9824850212289
 20
131.9312231373655
 30
0.0
 40
10.0
 41
0.0
 71
     5
 72
     1
  1
\A1;168
 73
     1
 44
1.0
  0
POINT
  5
3B3
330
F6
100
AcDbEntity
  8
Defpoints
 62
     0
100
AcDbPoint
 10
181.5077172433207
 20
131.9312231373655
 30
0.0
  0
POINT
  5
3B4
330
F6
100
AcDbEntity
  8
Defpoints
 62
     0
100
AcDbPoint
 10
349.1929716079523
 20
131.9312231373655
 30
0.0
  0
POINT
  5
3B5
330
F6
100
AcDbEntity
  8
Defpoints
 62
     0
100
AcDbPoint
 10
349.1929716079523
 20
131.9312231373655
 30
0.0
  0
ENDBLK
  5
102
330
F6
100
AcDbEntity
  8
0
100
AcDbBlockEnd
  0
BLOCK
  5
135
330
12A
100
AcDbEntity
  8
0
100
AcDbBlockBegin
  2
*D8
 70
     1
 10
0.0
 20
0.0
 30
0.0
  3
*D8
  1

  0
LINE
  5
3A2
330
12A
100
AcDbEntity
  8
Dimensions
 62
     0
370
    -2
100
AcDbLine
 10
213.2449041860244
 20
136.9312231373655
 30
0.0
 11
213.2449041860244
 21
127.2429370530385
 31
0.0
  0
LINE
  5
3A3
330
12A
100
AcDbEntity
  8
Dimensions
 62
     0
370
    -2
100
AcDbLine
 10
317.5131491735005
 20
136.9312231373655
 30
0.0
 11
317.5131491735005
 21
127.2429370530385
 31
0.0
  0
LINE
  5
3A4
330
12A
100
AcDbEntity
  8
Dimensions
 62
     0
370
    -2
100
AcDbLine
 10
223.2449041860244
 20
117.2429370530385
 30
0.0
 11
307.5131491735005
 21
117.2429370530385
 31
0.0
  0
LINE
  5
3A5
330
12A
100
AcDbEntity
  8
Dimensions
 62
     0
370
    -2
100
AcDbLine
 10
317.5131491735005
 20
117.2429370530385
 30
0.0
 11
344.7120781804716
 21
117.2429370530385
 31
0.0
  0
SOLID
  5
3A6
330
12A
100
AcDbEntity
  8
Dimensions
 62
     0
100
AcDbTrace
 10
223.2449041860244
 20
118.9096037197052
 30
0.0
 11
223.2449041860244
 21
115.5762703863718
 31
0.0
 12
213.2449041860244
 22
117.2429370530385
 32
0.0
 13
213.2449041860244
 23
117.2429370530385
 33
0.0
  0
SOLID
  5
3A7
330
12A
100
AcDbEntity
  8
Dimensions
 62
     0
100
AcDbTrace
 10
307.5131491735005
 20
118.9096037197052
 30
0.0
 11
307.5131491735005
 21
115.5762703863718
 31
0.0
 12
317.5131491735005
 22
117.2429370530385
 32
0.0
 13
317.5131491735005
 23
117.2429370530385
 33
0.0
  0
MTEXT
  5
3A8
330
12A
100
AcDbEntity
  8
Dimensions
 62
     0
100
AcDbMText
 10
360.545411513805
 20
117.2429370530385
 30
0.0
 40
10.0
 41
0.0
 71
     5
 72
     1
  1
\A1;104
 73
     1
 44
1.0
  0
POINT
  5
3A9
330
12A
100
AcDbEntity
  8
Defpoints
 62
     0
100
AcDbPoint
 10
213.2449041860244
 20
116.9312231373655
 30
0.0
  0
POINT
  5
3AA
330
12A
100
AcDbEntity
  8
Defpoints
 62
     0
100
AcDbPoint
 10
317.5131491735005
 20
116.9312231373655
 30
0.0
  0
POINT
  5
3AB
330
12A
100
AcDbEntity
  8
Defpoints
 62
     0
100
AcDbPoint
 10
317.5131491735005
 20
117.2429370530385
 30
0.0
  0
ENDBLK
  5
136
330
12A
100
AcDbEntity
  8
0
100
AcDbBlockEnd
  0
BLOCK
  5
1A9
330
19E
100
AcDbEntity
  8
0
100
AcDbBlockBegin
  2
*D9
 70
     1
 10
0.0
 20
0.0
 30
0.0
  3
*D9
  1

  0
LINE
  5
255
330
19E
100
AcDbEntity
  8
Dimensions
 62
     0
370
    -2
100
AcDbLine
 10
-20.00000033841388
 20
430.0000010199656
 30
0.0
 11
-128.9344828052939
 21
430.0000010199656
 31
0.0
  0
LINE
  5
256
330
19E
100
AcDbEntity
  8
Dimensions
 62
     0
370
    -2
100
AcDbLine
 10
-20.00000033841388
 20
106.9312231373655
 30
0.0
 11
-128.934482805294
 21
106.9312231373656
 31
0.0
  0
LINE
  5
257
330
19E
100
AcDbEntity
  8
Dimensions
 62
     0
370
    -2
100
AcDbLine
 10
-118.9344828052939
 20
420.0000010199655
 30
0.0
 11
-118.934482805294
 21
286.7989454119988
 31
0.0
  0
LINE
  5
258
330
19E
100
AcDbEntity
  8
Dimensions
 62
     0
370
    -2
100
AcDbLine
 10
-118.934482805294
 20
116.9312231373655
 30
0.0
 11
-118.934482805294
 21
250.1322787453322
 31
0.0
  0
SOLID
  5
259
330
19E
100
AcDbEntity
  8
Dimensions
 62
     0
100
AcDbTrace
 10
-120.6011494719606
 20
420.0000010199655
 30
0.0
 11
-117.2678161386272
 21
420.0000010199655
 31
0.0
 12
-118.9344828052939
 22
430.0000010199656
 32
0.0
 13
-118.9344828052939
 23
430.0000010199656
 33
0.0
  0
SOLID
  5
25A
330
19E
100
AcDbEntity
  8
Dimensions
 62
     0
100
AcDbTrace
 10
-120.6011494719607
 20
116.9312231373655
 30
0.0
 11
-117.2678161386273
 21
116.9312231373655
 31
0.0
 12
-118.934482805294
 22
106.9312231373656
 32
0.0
 13
-118.934482805294
 23
106.9312231373656
 33
0.0
  0
MTEXT
  5
25B
330
19E
100
AcDbEntity
  8
Dimensions
 62
     0
100
AcDbMText
 10
-118.934482805294
 20
268.4656120786655
 30
0.0
 40
10.0
 41
0.0
 71
     5
 72
     1
  1
\A1;323
 11
0.0000000000000001
 21
1.0
 31
0.0
 73
     1
 44
1.0
  0
POINT
  5
25C
330
19E
100
AcDbEntity
  8
Defpoints
 62
     0
100
AcDbPoint
 10
-0.0000003384138836
 20
430.0000010199656
 30
0.0
  0
POINT
  5
25D
330
19E
100
AcDbEntity
  8
Defpoints
 62
     0
100
AcDbPoint
 10
-0.0000003384138836
 20
106.9312231373655
 30
0.0
  0
POINT
  5
25E
330
19E
100
AcDbEntity
  8
Defpoints
 62
     0
100
AcDbPoint
 10
-118.934482805294
 20
106.9312231373656
 30
0.0
  0
ENDBLK
  5
1AA
330
19E
100
AcDbEntity
  8
0
100
AcDbBlockEnd
  0
BLOCK
  5
1C3
330
1B8
100
AcDbEntity
  8
0
100
AcDbBlockBegin
  2
*D10
 70
     1
 10
0.0
 20
0.0
 30
0.0
  3
*D10
  1

  0
LINE
  5
2E7
330
1B8
100
AcDbEntity
  8
Dimensions
 62
     0
370
    -2
100
AcDbLine
 10
129.9942269671397
 20
156.9312231373655
 30
0.0
 11
-96.45147927077804
 21
156.9312231373656
 31
0.0
  0
LINE
  5
2E8
330
1B8
100
AcDbEntity
  8
Dimensions
 62
     0
370
    -2
100
AcDbLine
 10
-20.00000033841388
 20
106.9312231373655
 30
0.0
 11
-96.45147927077802
 21
106.9312231373655
 31
0.0
  0
LINE
  5
2E9
330
1B8
100
AcDbEntity
  8
Dimensions
 62
     0
370
    -2
100
AcDbLine
 10
-86.45147927077802
 20
146.9312231373656
 30
0.0
 11
-86.45147927077802
 21
116.9312231373655
 31
0.0
  0
LINE
  5
2EA
330
1B8
100
AcDbEntity
  8
Dimensions
 62
     0
370
    -2
100
AcDbLine
 10
-86.45147927077802
 20
106.9312231373655
 30
0.0
 11
-86.45147927077802
 21
96.93122313736557
 31
0.0
  0
SOLID
  5
2EB
330
1B8
100
AcDbEntity
  8
Dimensions
 62
     0
100
AcDbTrace
 10
-88.1181459374447
 20
146.9312231373656
 30
0.0
 11
-84.78481260411134
 21
146.9312231373656
 31
0.0
 12
-86.45147927077802
 22
156.9312231373656
 32
0.0
 13
-86.45147927077802
 23
156.9312231373656
 33
0.0
  0
SOLID
  5
2EC
330
1B8
100
AcDbEntity
  8
Dimensions
 62
     0
100
AcDbTrace
 10
-88.1181459374447
 20
116.9312231373655
 30
0.0
 11
-84.78481260411134
 21
116.9312231373655
 31
0.0
 12
-86.45147927077802
 22
106.9312231373655
 32
0.0
 13
-86.45147927077802
 23
106.9312231373655
 33
0.0
  0
MTEXT
  5
2ED
330
1B8
100
AcDbEntity
  8
Dimensions
 62
     0
100
AcDbMText
 10
-86.45147927077806
 20
84.43122313736555
 30
0.0
 40
10.0
 41
0.0
 71
     5
 72
     1
  1
\A1;50
 11
0.0000000000000001
 21
1.0
 31
0.0
 73
     1
 44
1.0
  0
POINT
  5
2EE
330
1B8
100
AcDbEntity
  8
Defpoints
 62
     0
100
AcDbPoint
 10
149.9942269671397
 20
156.9312231373655
 30
0.0
  0
POINT
  5
2EF
330
1B8
100
AcDbEntity
  8
Defpoints
 62
     0
100
AcDbPoint
 10
-0.0000003384138836
 20
106.9312231373655
 30
0.0
  0
POINT
  5
2F0
330
1B8
100
AcDbEntity
  8
Defpoints
 62
     0
100
AcDbPoint
 10
-86.45147927077802
 20
106.9312231373655
 30
0.0
  0
ENDBLK
  5
1C4
330
1B8
100
AcDbEntity
  8
0
100
AcDbBlockEnd
  0
BLOCK
  5
1DD
330
1D2
100
AcDbEntity
  8
0
100
AcDbBlockBegin
  2
*D11
 70
     1
 10
0.0
 20
0.0
 30
0.0
  3
*D11
  1

  0
LINE
  5
2DD
330
1D2
100
AcDbEntity
  8
Dimensions
 62
     0
370
    -2
100
AcDbLine
 10
161.5077172433207
 20
131.9312231373655
 30
0.0
 11
-47.72697396900364
 21
131.9312231373655
 31
0.0
  0
LINE
  5
2DE
330
1D2
100
AcDbEntity
  8
Dimensions
 62
     0
370
    -2
100
AcDbLine
 10
-20.00000033841388
 20
106.9312231373655
 30
0.0
 11
-47.72697396900364
 21
106.9312231373655
 31
0.0
  0
LINE
  5
2DF
330
1D2
100
AcDbEntity
  8
Dimensions
 62
     0
370
    -2
100
AcDbLine
 10
-37.72697396900364
 20
141.9312231373655
 30
0.0
 11
-37.72697396900364
 21
151.9312231373655
 31
0.0
  0
LINE
  5
2E0
330
1D2
100
AcDbEntity
  8
Dimensions
 62
     0
370
    -2
100
AcDbLine
 10
-37.72697396900365
 20
96.93122313736557
 30
0.0
 11
-37.72697396900365
 21
86.93122313736557
 31
0.0
  0
SOLID
  5
2E1
330
1D2
100
AcDbEntity
  8
Dimensions
 62
     0
100
AcDbTrace
 10
-39.39364063567031
 20
141.9312231373655
 30
0.0
 11
-36.06030730233698
 21
141.9312231373655
 31
0.0
 12
-37.72697396900364
 22
131.9312231373655
 32
0.0
 13
-37.72697396900364
 23
131.9312231373655
 33
0.0
  0
SOLID
  5
2E2
330
1D2
100
AcDbEntity
  8
Dimensions
 62
     0
100
AcDbTrace
 10
-39.39364063567031
 20
96.93122313736557
 30
0.0
 11
-36.06030730233698
 21
96.93122313736557
 31
0.0
 12
-37.72697396900365
 22
106.9312231373655
 32
0.0
 13
-37.72697396900365
 23
106.9312231373655
 33
0.0
  0
MTEXT
  5
2E3
330
1D2
100
AcDbEntity
  8
Dimensions
 62
     0
100
AcDbMText
 10
-37.72697396900366
 20
73.59788980403222
 30
0.0
 40
10.0
 41
0.0
 71
     5
 72
     1
  1
\A1;25
 11
0.0000000000000001
 21
1.0
 31
0.0
 73
     1
 44
1.0
  0
POINT
  5
2E4
330
1D2
100
AcDbEntity
  8
Defpoints
 62
     0
100
AcDbPoint
 10
181.5077172433207
 20
131.9312231373655
 30
0.0
  0
POINT
  5
2E5
330
1D2
100
AcDbEntity
  8
Defpoints
 62
     0
100
AcDbPoint
 10
-0.0000003384138836
 20
106.9312231373655
 30
0.0
  0
POINT
  5
2E6
330
1D2
100
AcDbEntity
  8
Defpoints
 62
     0
100
AcDbPoint
 10
-37.72697396900365
 20
106.9312231373655
 30
0.0
  0
ENDBLK
  5
1DE
330
1D2
100
AcDbEntity
  8
0
100
AcDbBlockEnd
  0
BLOCK
  5
1F7
330
1EC
100
AcDbEntity
  8
0
100
AcDbBlockBegin
  2
*D12
 70
     1
 10
0.0
 20
0.0
 30
0.0
  3
*D12
  1

  0
LINE
  5
273
330
1EC
100
AcDbEntity
  8
Dimensions
 62
     0
370
    -2
100
AcDbLine
 10
193.2449041860244
 20
116.9312231373655
 30
0.0
 11
63.25662114037076
 21
116.9312231373655
 31
0.0
  0
LINE
  5
274
330
1EC
100
AcDbEntity
  8
Dimensions
 62
     0
370
    -2
100
AcDbLine
 10
244.2772723888861
 20
106.9312231373655
 30
0.0
 11
63.25662114037075
 21
106.9312231373656
 31
0.0
  0
LINE
  5
275
330
1EC
100
AcDbEntity
  8
Dimensions
 62
     0
370
    -2
100
AcDbLine
 10
73.25662114037074
 20
126.9312231373655
 30
0.0
 11
73.25662114037074
 21
136.9312231373655
 31
0.0
  0
LINE
  5
276
330
1EC
100
AcDbEntity
  8
Dimensions
 62
     0
370
    -2
100
AcDbLine
 10
73.25662114037074
 20
96.9312231373656
 30
0.0
 11
73.25662114037072
 21
86.9312231373656
 31
0.0
  0
SOLID
  5
277
330
1EC
100
AcDbEntity
  8
Dimensions
 62
     0
100
AcDbTrace
 10
71.58995447370407
 20
126.9312231373655
 30
0.0
 11
74.92328780703741
 21
126.9312231373655
 31
0.0
 12
73.25662114037074
 22
116.9312231373655
 32
0.0
 13
73.25662114037074
 23
116.9312231373655
 33
0.0
  0
SOLID
  5
278
330
1EC
100
AcDbEntity
  8
Dimensions
 62
     0
100
AcDbTrace
 10
71.58995447370407
 20
96.9312231373656
 30
0.0
 11
74.92328780703741
 21
96.9312231373656
 31
0.0
 12
73.25662114037074
 22
106.9312231373656
 32
0.0
 13
73.25662114037074
 23
106.9312231373656
 33
0.0
  0
MTEXT
  5
279
330
1EC
100
AcDbEntity
  8
Dimensions
 62
     0
100
AcDbMText
 10
73.25662114037071
 20
76.09788980403229
 30
0.0
 40
10.0
 41
0.0
 71
     5
 72
     1
  1
\A1;10
 11
0.0000000000000001
 21
1.0
 31
0.0
 73
     1
 44
1.0
  0
POINT
  5
27A
330
1EC
100
AcDbEntity
  8
Defpoints
 62
     0
100
AcDbPoint
 10
213.2449041860244
 20
116.9312231373655
 30
0.0
  0
POINT
  5
27B
330
1EC
100
AcDbEntity
  8
Defpoints
 62
     0
100
AcDbPoint
 10
264.2772723888861
 20
106.9312231373655
 30
0.0
  0
POINT
  5
27C
330
1EC
100
AcDbEntity
  8
Defpoints
 62
     0
100
AcDbPoint
 10
73.25662114037074
 20
106.9312231373656
 30
0.0
  0
ENDBLK
  5
1F8
330
1EC
100
AcDbEntity
  8
0
100
AcDbBlockEnd
  0
BLOCK
  5
289
330
27E
100
AcDbEntity
  8
0
100
AcDbBlockBegin
  2
*D13
 70
     1
 10
0.0
 20
0.0
 30
0.0
  3
*D13
  1

  0
LINE
  5
348
330
27E
100
AcDbEntity
  8
Dimensions
 62
     0
370
    -2
100
AcDbLine
 10
84.99999966158611
 20
410.0000010199655
 30
0.0
 11
84.99999966158611
 21
419.8950290741828
 31
0.0
  0
LINE
  5
349
330
27E
100
AcDbEntity
  8
Dimensions
 62
     0
370
    -2
100
AcDbLine
 10
439.9999996615861
 20
410.0000010199655
 30
0.0
 11
439.9999996615861
 21
419.8950290741828
 31
0.0
  0
LINE
  5
34A
330
27E
100
AcDbEntity
  8
Dimensions
 62
     0
370
    -2
100
AcDbLine
 10
94.99999966158611
 20
429.8950290741828
 30
0.0
 11
168.2326594915731
 21
429.8950290741828
 31
0.0
  0
LINE
  5
34B
330
27E
100
AcDbEntity
  8
Dimensions
 62
     0
370
    -2
100
AcDbLine
 10
429.9999996615861
 20
429.8950290741828
 30
0.0
 11
204.8993261582398
 21
429.8950290741828
 31
0.0
  0
SOLID
  5
34C
330
27E
100
AcDbEntity
  8
Dimensions
 62
     0
100
AcDbTrace
 10
94.99999966158611
 20
431.5616957408495
 30
0.0
 11
94.99999966158611
 21
428.2283624075161
 31
0.0
 12
84.99999966158611
 22
429.8950290741828
 32
0.0
 13
84.99999966158611
 23
429.8950290741828
 33
0.0
  0
SOLID
  5
34D
330
27E
100
AcDbEntity
  8
Dimensions
 62
     0
100
AcDbTrace
 10
429.9999996615861
 20
431.5616957408495
 30
0.0
 11
429.9999996615861
 21
428.2283624075161
 31
0.0
 12
439.9999996615861
 22
429.8950290741828
 32
0.0
 13
439.9999996615861
 23
429.8950290741828
 33
0.0
  0
MTEXT
  5
34E
330
27E
100
AcDbEntity
  8
Dimensions
 62
     0
100
AcDbMText
 10
186.5659928249065
 20
429.8950290741828
 30
0.0
 40
10.0
 41
0.0
 71
     5
 72
     1
  1
\A1;355
 73
     1
 44
1.0
  0
POINT
  5
34F
330
27E
100
AcDbEntity
  8
Defpoints
 62
     0
100
AcDbPoint
 10
84.99999966158611
 20
430.0000010199656
 30
0.0
  0
POINT
  5
350
330
27E
100
AcDbEntity
  8
Defpoints
 62
     0
100
AcDbPoint
 10
439.9999996615861
 20
430.0000010199656
 30
0.0
  0
POINT
  5
351
330
27E
100
AcDbEntity
  8
Defpoints
 62
     0
100
AcDbPoint
 10
439.9999996615861
 20
429.8950290741828
 30
0.0
  0
ENDBLK
  5
28A
330
27E
100
AcDbEntity
  8
0
100
AcDbBlockEnd
  0
BLOCK
  5
304
330
2F9
100
AcDbEntity
  8
0
100
AcDbBlockBegin
  2
*D14
 70
     1
 10
0.0
 20
0.0
 30
0.0
  3
*D14
  1

  0
LINE
  5
307
330
2F9
100
AcDbEntity
  8
0
 62
     0
370
    -2
100
AcDbLine
 10
539.9999996615861
 20
430.0000010199656
 30
0.0
 11
608.8994426991604
 21
430.0000010199656
 31
0.0
  0
LINE
  5
308
330
2F9
100
AcDbEntity
  8
0
 62
     0
370
    -2
100
AcDbLine
 10
539.9999996615861
 20
0.0000010199655606
 30
0.0
 11
608.8994426991603
 21
0.000001019965541
 31
0.0
  0
LINE
  5
309
330
2F9
100
AcDbEntity
  8
0
 62
     0
370
    -2
100
AcDbLine
 10
598.8994426991604
 20
420.0000010199655
 30
0.0
 11
598.8994426991602
 21
232.5000010199655
 31
0.0
  0
LINE
  5
30A
330
2F9
100
AcDbEntity
  8
0
 62
     0
370
    -2
100
AcDbLine
 10
598.8994426991602
 20
10.00000101996554
 30
0.0
 11
598.8994426991602
 21
197.5000010199655
 31
0.0
  0
SOLID
  5
30B
330
2F9
100
AcDbEntity
  8
0
 62
     0
100
AcDbTrace
 10
597.2327760324938
 20
420.0000010199655
 30
0.0
 11
600.566109365827
 21
420.0000010199655
 31
0.0
 12
598.8994426991604
 22
430.0000010199656
 32
0.0
 13
598.8994426991604
 23
430.0000010199656
 33
0.0
  0
SOLID
  5
30C
330
2F9
100
AcDbEntity
  8
0
 62
     0
100
AcDbTrace
 10
597.2327760324937
 20
10.00000101996554
 30
0.0
 11
600.5661093658269
 21
10.00000101996554
 31
0.0
 12
598.8994426991602
 22
0.0000010199655439
 32
0.0
 13
598.8994426991602
 23
0.0000010199655439
 33
0.0
  0
MTEXT
  5
30D
330
2F9
100
AcDbEntity
  8
0
 62
     0
100
AcDbMText
 10
598.8994426991602
 20
215.0000010199656
 30
0.0
 40
10.0
 41
0.0
 71
     5
 72
     1
  1
\A1;430
 11
0.0000000000000001
 21
1.0
 31
0.0
 73
     1
 44
1.0
  0
POINT
  5
30E
330
2F9
100
AcDbEntity
  8
Defpoints
 62
     0
100
AcDbPoint
 10
519.999999661586
 20
430.0000010199656
 30
0.0
  0
POINT
  5
30F
330
2F9
100
AcDbEntity
  8
Defpoints
 62
     0
100
AcDbPoint
 10
519.999999661586
 20
0.0000010199655662
 30
0.0
  0
POINT
  5
310
330
2F9
100
AcDbEntity
  8
Defpoints
 62
     0
100
AcDbPoint
 10
598.8994426991602
 20
0.0000010199655439
 30
0.0
  0
ENDBLK
  5
305
330
2F9
100
AcDbEntity
  8
0
100
AcDbBlockEnd
  0
BLOCK
  5
31E
330
313
100
AcDbEntity
  8
0
100
AcDbBlockBegin
  2
*D15
 70
     1
 10
0.0
 20
0.0
 30
0.0
  3
*D15
  1

  0
LINE
  5
321
330
313
100
AcDbEntity
  8
0
 62
     0
370
    -2
100
AcDbLine
 10
519.999999661586
 20
-19.99999898003443
 30
0.0
 11
519.999999661586
 21
-71.79208038255206
 31
0.0
  0
LINE
  5
322
330
313
100
AcDbEntity
  8
0
 62
     0
370
    -2
100
AcDbLine
 10
-0.0000003384138848
 20
-19.99999898003443
 30
0.0
 11
-0.000000338413888
 21
-71.79208038255206
 31
0.0
  0
LINE
  5
323
330
313
100
AcDbEntity
  8
0
 62
     0
370
    -2
100
AcDbLine
 10
509.9999996615861
 20
-61.79208038255206
 30
0.0
 11
277.4999996615861
 21
-61.79208038255206
 31
0.0
  0
LINE
  5
324
330
313
100
AcDbEntity
  8
0
 62
     0
370
    -2
100
AcDbLine
 10
9.999999661586112
 20
-61.79208038255206
 30
0.0
 11
242.4999996615861
 21
-61.79208038255206
 31
0.0
  0
SOLID
  5
325
330
313
100
AcDbEntity
  8
0
 62
     0
100
AcDbTrace
 10
509.9999996615861
 20
-60.1254137158854
 30
0.0
 11
509.9999996615861
 21
-63.45874704921872
 31
0.0
 12
519.999999661586
 22
-61.79208038255206
 32
0.0
 13
519.999999661586
 23
-61.79208038255206
 33
0.0
  0
SOLID
  5
326
330
313
100
AcDbEntity
  8
0
 62
     0
100
AcDbTrace
 10
9.999999661586112
 20
-60.1254137158854
 30
0.0
 11
9.999999661586112
 21
-63.45874704921872
 31
0.0
 12
-0.0000003384138874
 22
-61.79208038255206
 32
0.0
 13
-0.0000003384138874
 23
-61.79208038255206
 33
0.0
  0
MTEXT
  5
327
330
313
100
AcDbEntity
  8
0
 62
     0
100
AcDbMText
 10
259.9999996615861
 20
-61.79208038255206
 30
0.0
 40
10.0
 41
0.0
 71
     5
 72
     1
  1
\A1;520
 73
     1
 44
1.0
  0
POINT
  5
328
330
313
100
AcDbEntity
  8
Defpoints
 62
     0
100
AcDbPoint
 10
519.999999661586
 20
0.0000010199655662
 30
0.0
  0
POINT
  5
329
330
313
100
AcDbEntity
  8
Defpoints
 62
     0
100
AcDbPoint
 10
-0.0000003384138836
 20
0.0000010199655662
 30
0.0
  0
POINT
  5
32A
330
313
100
AcDbEntity
  8
Defpoints
 62
     0
100
AcDbPoint
 10
-0.0000003384138874
 20
-61.79208038255206
 30
0.0
  0
ENDBLK
  5
31F
330
313
100
AcDbEntity
  8
0
100
AcDbBlockEnd
  0
ENDSEC
  0
SECTION
  2
ENTITIES
  0
LINE
  5
3D
102
{ACAD_REACTORS
330
296
102
}
330
1F
100
AcDbEntity
  8
CK_LEVEL_1
  6
Continuous
 62
     3
100
AcDbLine
 10
-0.0000003384138836
 20
430.0000010199656
 30
0.0
 11
84.99999966158611
 21
430.0000010199656
 31
0.0
  0
LINE
  5
3E
102
{ACAD_REACTORS
330
311
330
32B
102
}
330
1F
100
AcDbEntity
  8
CK_LEVEL_1
  6
Continuous
 62
     3
100
AcDbLine
 10
-0.0000003384138836
 20
0.0000010199655662
 30
0.0
 11
519.999999661586
 21
0.0000010199655662
 31
0.0
  0
LINE
  5
3F
102
{ACAD_REACTORS
330
1B6
102
}
330
1F
100
AcDbEntity
  8
CK_LEVEL_1
  6
Continuous
 62
     3
100
AcDbLine
 10
-0.0000003384138836
 20
0.0000010199655662
 30
0.0
 11
-0.0000003384138836
 21
430.0000010199656
 31
0.0
  0
ARC
  5
40
330
1F
100
AcDbEntity
  8
CK_LEVEL_1
  6
Continuous
 62
     3
100
AcDbCircle
 10
29.87745064198611
 20
354.2189552683654
 30
0.0
 40
409.0969620972
100
AcDbArc
 50
338.3065298963984
 51
356.0446738990997
  0
ARC
  5
41
330
1F
100
AcDbEntity
  8
CK_LEVEL_1
  6
Continuous
 62
     3
100
AcDbCircle
 10
267.3715080414858
 20
272.5279339808655
 30
0.0
 40
164.742300792
100
AcDbArc
 50
200.4383622269009
 51
251.8304810350053
  0
LINE
  5
42
102
{ACAD_REACTORS
330
311
102
}
330
1F
100
AcDbEntity
  8
CK_LEVEL_1
  6
Continuous
 62
     3
100
AcDbLine
 10
519.999999661586
 20
0.0000010199655662
 30
0.0
 11
519.999999661586
 21
430.0000010199656
 31
0.0
  0
ARC
  5
43
102
{ACAD_REACTORS
330
204
102
}
330
1F
100
AcDbEntity
  8
CK_LEVEL_1
  6
Continuous
 62
     3
100
AcDbCircle
 10
264.2772723888861
 20
239.9666676866655
 30
0.0
 40
133.0354445493
100
AcDbArc
 50
248.7221941379956
 51
287.3727877631948
  0
ARC
  5
44
330
1F
100
AcDbEntity
  8
CK_LEVEL_1
  6
Continuous
 62
     3
100
AcDbCircle
 10
267.6081077696863
 20
263.2837848037655
 30
0.0
 40
154.6272468351999
100
AcDbArc
 50
283.6123957816941
 51
337.0538874753993
  0
LINE
  5
45
102
{ACAD_REACTORS
330
296
102
}
330
1F
100
AcDbEntity
  8
CK_LEVEL_1
  6
Continuous
 62
     3
100
AcDbLine
 10
439.9999996615861
 20
430.0000010199656
 30
0.0
 11
519.999999661586
 21
430.0000010199656
 31
0.0
  0
ARC
  5
46
330
1F
100
AcDbEntity
  8
CK_LEVEL_1
  6
Continuous
 62
     3
100
AcDbCircle
 10
-1277.000000338413
 20
411.0000010199655
 30
0.0
 40
1717.1051220004
100
AcDbArc
 50
357.1625892958995
 51
0.633998473700033
  0
LINE
  5
47
102
{ACAD_REACTORS
330
8A
102
}
330
1F
100
AcDbEntity
  8
CK_LEVEL_1
  6
Continuous
 62
     3
100
AcDbLine
 10
84.99999966158611
 20
360.0000010199655
 30
0.0
 11
84.99999966158611
 21
430.0000010199656
 31
0.0
  0
ARC
  5
48
330
1F
100
AcDbEntity
  8
CK_LEVEL_1
  6
Continuous
 62
     3
100
AcDbCircle
 10
557.7149529325861
 20
376.0794402722655
 30
0.0
 40
472.9883459586998
100
AcDbArc
 50
181.9481696731999
 51
199.9108063311
  0
DIMENSION
  5
56
330
1F
100
AcDbEntity
  8
Dimensions
100
AcDbDimension
  2
*D1
 10
440.100301055349
 20
406.9312231373656
 30
0.0
 11
186.5659928249065
 21
406.9312231373656
 31
0.0
 70
   160
 71
     5
 42
355.1003013937629
  3
ISO-25
100
AcDbAlignedDimension
 13
84.99999966158611
 23
406.9312231373656
 33
0.0
 14
440.100301055349
 24
406.9312231373655
 34
0.0
100
AcDbRotatedDimension
  0
DIMENSION
  5
71
102
{ACAD_XDICTIONARY
360
7F
102
}
102
{ACAD_REACTORS
330
8A
102
}
330
1F
100
AcDbEntity
  8
Dimensions
100
AcDbDimension
  2
*D2
 10
439.2536427045631
 20
356.9312231373655
 30
0.0
 11
187.656124315617
 21
356.9312231373655
 31
0.0
 70
   160
 71
     5
 42
354.253643042977
  3
ISO-25
100
AcDbAlignedDimension
 13
84.99999966158611
 23
360.0000010199655
 33
0.0
 14
439.2536427045631
 24
356.9312231373655
 34
0.0
100
AcDbRotatedDimension
  0
DIMENSION
  5
8B
330
1F
100
AcDbEntity
  8
Dimensions
100
AcDbDimension
  2
*D3
 10
436.2322153329698
 20
306.9312231373655
 30
0.0
 11
187.656124315617
 21
306.9312231373655
 31
0.0
 70
   160
 71
     5
 42
346.4237696000714
  3
ISO-25
100
AcDbAlignedDimension
 13
89.80844573289834
 23
306.9312231373655
 33
0.0
 14
436.2322153329698
 24
306.9312231373655
 34
0.0
100
AcDbRotatedDimension
  0
DIMENSION
  5
A5
330
1F
100
AcDbEntity
  8
Dimensions
100
AcDbDimension
  2
*D4
 10
427.2380193625936
 20
256.9312231373655
 30
0.0
 11
190.9265220645156
 21
256.9312231373655
 31
0.0
 70
   160
 71
     5
 42
327.2584460614289
  3
ISO-25
100
AcDbAlignedDimension
 13
99.9795733011647
 23
256.9312231373655
 33
0.0
 14
427.2380193625936
 24
256.9312231373655
 34
0.0
100
AcDbRotatedDimension
  0
DIMENSION
  5
BF
330
1F
100
AcDbEntity
  8
Dimensions
100
AcDbDimension
  2
*D5
 10
411.5404542994859
 20
206.9312231373655
 30
0.0
 11
188.7462558063275
 21
206.9312231373655
 31
0.0
 70
   160
 71
     5
 42
295.2884261299081
  3
ISO-25
100
AcDbAlignedDimension
 13
116.2520281695776
 23
206.9312231373655
 33
0.0
 14
411.5404542994859
 24
206.9312231373655
 34
0.0
100
AcDbRotatedDimension
  0
DIMENSION
  5
D9
330
1F
100
AcDbEntity
  8
Dimensions
100
AcDbDimension
  2
*D6
 10
379.852119150376
 20
156.9312231373655
 30
0.0
 11
205.0982445508211
 21
156.9312231373655
 31
0.0
 70
   160
 71
     5
 42
229.8578921832363
  3
ISO-25
100
AcDbAlignedDimension
 13
149.9942269671397
 23
156.9312231373655
 33
0.0
 14
379.852119150376
 24
156.9312231373655
 34
0.0
100
AcDbRotatedDimension
  0
DIMENSION
  5
F5
330
1F
100
AcDbEntity
  8
Dimensions
100
AcDbDimension
  2
*D7
 10
349.1929716079523
 20
131.9312231373655
 30
0.0
 11
239.9824850212289
 21
131.9312231373655
 31
0.0
 70
   160
 71
     5
 42
167.6852543646315
  3
ISO-25
100
AcDbAlignedDimension
 13
181.5077172433207
 23
131.9312231373655
 33
0.0
 14
349.1929716079523
 24
131.9312231373655
 34
0.0
100
AcDbRotatedDimension
  0
DIMENSION
  5
129
330
1F
100
AcDbEntity
  8
Dimensions
100
AcDbDimension
  2
*D8
 10
317.5131491735005
 20
117.2429370530385
 30
0.0
 11
360.545411513805
 21
117.2429370530385
 31
0.0
 70
   160
 71
     5
 42
104.268244987476
  3
ISO-25
100
AcDbAlignedDimension
 13
213.2449041860244
 23
116.9312231373655
 33
0.0
 14
317.5131491735005
 24
116.9312231373655
 34
0.0
100
AcDbRotatedDimension
  0
DIMENSION
  5
19D
102
{ACAD_XDICTIONARY
360
1AB
102
}
102
{ACAD_REACTORS
330
1B6
102
}
330
1F
100
AcDbEntity
  8
Dimensions
100
AcDbDimension
  2
*D9
 10
-118.934482805294
 20
106.9312231373656
 30
0.0
 11
-118.934482805294
 21
268.4656120786655
 31
0.0
 70
    32
 71
     5
 42
323.0687778825999
  3
ISO-25
100
AcDbAlignedDimension
 13
-0.0000003384138836
 23
430.0000010199656
 33
0.0
 14
-0.0000003384138836
 24
106.9312231373655
 34
0.0
 50
90.0
100
AcDbRotatedDimension
  0
DIMENSION
  5
1B7
330
1F
100
AcDbEntity
  8
Dimensions
100
AcDbDimension
  2
*D10
 10
-86.45147927077802
 20
106.9312231373655
 30
0.0
 11
-86.45147927077806
 21
84.43122313736555
 31
0.0
 70
    32
 71
     5
 42
50.00000000000003
  3
ISO-25
100
AcDbAlignedDimension
 13
149.9942269671397
 23
156.9312231373655
 33
0.0
 14
-0.0000003384138836
 24
106.9312231373655
 34
0.0
 50
90.0
100
AcDbRotatedDimension
  0
DIMENSION
  5
1D1
330
1F
100
AcDbEntity
  8
Dimensions
100
AcDbDimension
  2
*D11
 10
-37.72697396900365
 20
106.9312231373655
 30
0.0
 11
-37.72697396900366
 21
73.59788980403222
 31
0.0
 70
    32
 71
     5
 42
25.00000000000003
  3
ISO-25
100
AcDbAlignedDimension
 13
181.5077172433207
 23
131.9312231373655
 33
0.0
 14
-0.0000003384138836
 24
106.9312231373655
 34
0.0
 50
90.0
100
AcDbRotatedDimension
  0
DIMENSION
  5
1EB
102
{ACAD_XDICTIONARY
360
1F9
102
}
102
{ACAD_REACTORS
330
204
102
}
330
1F
100
AcDbEntity
  8
Dimensions
100
AcDbDimension
  2
*D12
 10
73.25662114037074
 20
106.9312231373656
 30
0.0
 11
73.25662114037071
 21
76.09788980403229
 31
0.0
 70
    32
 71
     5
 42
9.999999999999957
  3
ISO-25
100
AcDbAlignedDimension
 13
213.2449041860244
 23
116.9312231373655
 33
0.0
 14
264.2772723888861
 24
106.9312231373655
 34
0.0
 50
90.0
100
AcDbRotatedDimension
  0
DIMENSION
  5
27D
102
{ACAD_XDICTIONARY
360
28B
102
}
102
{ACAD_REACTORS
330
296
102
}
330
1F
100
AcDbEntity
  8
Dimensions
100
AcDbDimension
  2
*D13
 10
439.9999996615861
 20
429.8950290741828
 30
0.0
 11
186.5659928249065
 21
429.8950290741828
 31
0.0
 70
   160
 71
     5
 42
355.0
  3
ISO-25
100
AcDbAlignedDimension
 13
84.99999966158611
 23
430.0000010199656
 33
0.0
 14
439.9999996615861
 24
430.0000010199656
 34
0.0
100
AcDbRotatedDimension
  0
DIMENSION
  5
2F8
102
{ACAD_XDICTIONARY
360
306
102
}
102
{ACAD_REACTORS
330
311
102
}
330
1F
100
AcDbEntity
  8
0
100
AcDbDimension
  2
*D14
 10
598.8994426991602
 20
0.0000010199655439
 30
0.0
 11
598.8994426991602
 21
215.0000010199656
 31
0.0
 70
    32
 71
     5
 42
430.0
  3
ISO-25
100
AcDbAlignedDimension
 13
519.999999661586
 23
430.0000010199656
 33
0.0
 14
519.999999661586
 24
0.0000010199655662
 34
0.0
 50
90.0
100
AcDbRotatedDimension
  0
DIMENSION
  5
312
102
{ACAD_XDICTIONARY
360
320
102
}
102
{ACAD_REACTORS
330
32B
102
}
330
1F
100
AcDbEntity
  8
0
100
AcDbDimension
  2
*D15
 10
-0.0000003384138874
 20
-61.79208038255206
 30
0.0
 11
259.9999996615861
 21
-61.79208038255206
 31
0.0
 70
    32
 71
     5
 42
520.0
  3
ISO-25
100
AcDbAlignedDimension
 13
519.999999661586
 23
0.0000010199655662
 33
0.0
 14
-0.0000003384138836
 24
0.0000010199655662
 34
0.0
100
AcDbRotatedDimension
  0
MTEXT
  5
330
330
1F
100
AcDbEntity
  8
0
100
AcDbMText
 10
159.7372559401515
 20
497.7194324014139
 30
0.0
 40
15.0
 41
314.2508
 71
     1
 72
     5
  1
{\fTimes New Roman|b0|i0|c0|p18;Rear Beam Template}
 73
     1
 44
1.0
  0
MTEXT
  5
344
330
1F
100
AcDbEntity
  8
0
  6
CENTER
100
AcDbMText
 10
29.80144661636902
 20
169.3782540777133
 30
0.0
 40
10.0
 41
240.3122999999999
 71
     1
 72
     5
  1
{\fTimes New Roman|b0|i0|c0|p18;SUBSEQUENT DIMENSIONS\PAT 50MM SPACING}
 11
0.0000000000000001
 21
1.0
 31
0.0
 73
     1
 44
1.0
  0
LINE
  5
3B6
330
1F
100
AcDbEntity
  8
0
  6
CENTER
100
AcDbLine
 10
259.9999996615861
 20
0.0000010199655662
 30
0.0
 11
259.9999996615861
 21
450.3535785420429
 31
0.0
  0
ENDSEC
  0
SECTION
  2
OBJECTS
  0
DICTIONARY
  5
C
330
0
100
AcDbDictionary
281
     1
  3
ACAD_GROUP
350
D
  3
ACAD_LAYOUT
350
1A
  3
ACAD_MLINESTYLE
350
17
  3
ACAD_PLOTSETTINGS
350
19
  3
ACAD_PLOTSTYLENAME
350
E
  3
AcDbVariableDictionary
350
52
  0
DICTIONARY
  5
7F
330
71
100
AcDbDictionary
280
     1
281
     1
  3
ACAD_DIMASSOC
360
8A
  0
DICTIONARY
  5
1AB
330
19D
100
AcDbDictionary
280
     1
281
     1
  3
ACAD_DIMASSOC
360
1B6
  0
DICTIONARY
  5
1F9
330
1EB
100
AcDbDictionary
280
     1
281
     1
  3
ACAD_DIMASSOC
360
204
  0
DICTIONARY
  5
28B
330
27D
100
AcDbDictionary
280
     1
281
     1
  3
ACAD_DIMASSOC
360
296
  0
DICTIONARY
  5
306
330
2F8
100
AcDbDictionary
280
     1
281
     1
  3
ACAD_DIMASSOC
360
311
  0
DICTIONARY
  5
320
330
312
100
AcDbDictionary
280
     1
281
     1
  3
ACAD_DIMASSOC
360
32B
  0
DICTIONARY
  5
D
102
{ACAD_REACTORS
330
C
102
}
330
C
100
AcDbDictionary
281
     1
  0
DICTIONARY
  5
1A
102
{ACAD_REACTORS
330
C
102
}
330
C
100
AcDbDictionary
281
     1
  3
Layout1
350
1E
  3
Layout2
350
26
  3
Model
350
22
  0
DICTIONARY
  5
17
102
{ACAD_REACTORS
330
C
102
}
330
C
100
AcDbDictionary
281
     1
  3
Standard
350
18
  0
DICTIONARY
  5
19
102
{ACAD_REACTORS
330
C
102
}
330
C
100
AcDbDictionary
281
     1
  0
ACDBDICTIONARYWDFLT
  5
E
102
{ACAD_REACTORS
330
C
102
}
330
C
100
AcDbDictionary
281
     1
  3
Normal
350
F
100
AcDbDictionaryWithDefault
340
F
  0
DICTIONARY
  5
52
102
{ACAD_REACTORS
330
C
102
}
330
C
100
AcDbDictionary
281
     1
  3
DIMASSOC
350
54
  3
HIDETEXT
350
53
  0
DIMASSOC
  5
8A
102
{ACAD_REACTORS
330
7F
102
}
330
7F
100
AcDbDimAssoc
330
71
 90
        1
 70
     0
 71
     0
  1
AcDbOsnapPointRef
 72
    13
331
47
 73
     2
 91
        0
 40
0.0
 10
84.99999966158611
 20
360.0000010199655
 30
0.0
 75
     0
  0
DIMASSOC
  5
1B6
102
{ACAD_REACTORS
330
1AB
102
}
330
1AB
100
AcDbDimAssoc
330
19D
 90
        1
 70
     0
 71
     0
  1
AcDbOsnapPointRef
 72
     1
331
3F
 73
     2
 91
        0
 40
1.0
 10
-0.0000003384138836
 20
430.0000010199656
 30
0.0
 75
     0
  0
DIMASSOC
  5
204
102
{ACAD_REACTORS
330
1F9
102
}
330
1F9
100
AcDbDimAssoc
330
1EB
 90
        2
 70
     0
 71
     0
  1
AcDbOsnapPointRef
 72
     5
331
43
 73
     2
 91
        0
 40
4.712388980384689
 10
264.2772723888861
 20
106.9312231373655
 30
0.0
 75
     0
  0
DIMASSOC
  5
296
102
{ACAD_REACTORS
330
28B
102
}
330
28B
100
AcDbDimAssoc
330
27D
 90
        3
 70
     0
 71
     0
  1
AcDbOsnapPointRef
 72
     1
331
3D
 73
     2
 91
        0
 40
1.0
 10
84.99999966158611
 20
430.0000010199656
 30
0.0
 75
     0
  1
AcDbOsnapPointRef
 72
    13
331
45
 73
     2
 91
        0
 40
0.0
 10
439.9999996615861
 20
430.0000010199656
 30
0.0
 75
     0
  0
DIMASSOC
  5
311
102
{ACAD_REACTORS
330
306
102
}
330
306
100
AcDbDimAssoc
330
2F8
 90
        3
 70
     0
 71
     0
  1
AcDbOsnapPointRef
 72
     1
331
42
 73
     2
 91
        0
 40
1.0
 10
519.999999661586
 20
430.0000010199656
 30
0.0
 75
     0
  1
AcDbOsnapPointRef
 72
     1
331
3E
 73
     2
 91
        0
 40
1.0
 10
519.999999661586
 20
0.0000010199655662
 30
0.0
 75
     0
  0
DIMASSOC
  5
32B
102
{ACAD_REACTORS
330
320
102
}
330
320
100
AcDbDimAssoc
330
312
 90
        3
 70
     0
 71
     0
  1
AcDbOsnapPointRef
 72
     1
331
3E
 73
     2
 91
        0
 40
1.0
 10
519.999999661586
 20
0.0000010199655662
 30
0.0
 75
     0
  1
AcDbOsnapPointRef
 72
    13
331
3E
 73
     2
 91
        0
 40
0.0
 10
-0.0000003384138836
 20
0.0000010199655662
 30
0.0
 75
     0
  0
LAYOUT
  5
1E
102
{ACAD_REACTORS
330
1A
102
}
330
1A
100
AcDbPlotSettings
  1

  2
Canon MP160 Printer
  4

  6

 40
0.0
 41
0.0
 42
0.0
 43
0.0
 44
0.0
 45
0.0
 46
0.0
 47
0.0
 48
0.0
 49
0.0
140
0.0
141
0.0
142
1.0
143
1.0
 70
   688
 72
     0
 73
     0
 74
     5
  7

 75
    16
147
1.0
148
0.0
149
0.0
100
AcDbLayout
  1
Layout1
 70
     1
 71
     1
 10
0.0
 20
0.0
 11
420.0
 21
297.0
 12
0.0
 22
0.0
 32
0.0
 14
1.000000000000000E+20
 24
1.000000000000000E+20
 34
1.000000000000000E+20
 15
-1.000000000000000E+20
 25
-1.000000000000000E+20
 35
-1.000000000000000E+20
146
0.0
 13
0.0
 23
0.0
 33
0.0
 16
1.0
 26
0.0
 36
0.0
 17
0.0
 27
1.0
 37
0.0
 76
     0
330
1B
  0
LAYOUT
  5
26
102
{ACAD_REACTORS
330
1A
102
}
330
1A
100
AcDbPlotSettings
  1

  2
Canon MP160 Printer
  4

  6

 40
0.0
 41
0.0
 42
0.0
 43
0.0
 44
0.0
 45
0.0
 46
0.0
 47
0.0
 48
0.0
 49
0.0
140
0.0
141
0.0
142
1.0
143
1.0
 70
   688
 72
     0
 73
     0
 74
     5
  7

 75
    16
147
1.0
148
0.0
149
0.0
100
AcDbLayout
  1
Layout2
 70
     1
 71
     2
 10
0.0
 20
0.0
 11
12.0
 21
9.0
 12
0.0
 22
0.0
 32
0.0
 14
0.0
 24
0.0
 34
0.0
 15
0.0
 25
0.0
 35
0.0
146
0.0
 13
0.0
 23
0.0
 33
0.0
 16
1.0
 26
0.0
 36
0.0
 17
0.0
 27
1.0
 37
0.0
 76
     0
330
23
  0
LAYOUT
  5
22
102
{ACAD_REACTORS
330
1A
102
}
330
1A
100
AcDbPlotSettings
  1

  2
Canon MP160 Printer
  4
A4
  6

 40
4.180416584014892
 41
5.83141803741455
 42
4.180404663085937
 43
3.757080078125
 44
209.9733276367187
 45
296.9683227539062
 46
0.0
 47
0.0
 48
-245.2386525710144
 49
-107.7613361277137
140
629.1411500759241
141
545.00209545358
142
1.0
143
3.237712993457969
 70
 11952
 72
     1
 73
     1
 74
     4
  7

 75
     0
147
0.3088599891406593
148
245.2386525710144
149
107.7613361277137
100
AcDbLayout
  1
Model
 70
     1
 71
     0
 10
0.0
 20
0.0
 11
12.0
 21
9.0
 12
0.0
 22
0.0
 32
0.0
 14
0.0
 24
0.0
 34
0.0
 15
0.0
 25
0.0
 35
0.0
146
0.0
 13
0.0
 23
0.0
 33
0.0
 16
1.0
 26
0.0
 36
0.0
 17
0.0
 27
1.0
 37
0.0
 76
     0
330
1F
  0
MLINESTYLE
  5
18
102
{ACAD_REACTORS
330
17
102
}
330
17
100
AcDbMlineStyle
  2
STANDARD
 70
     0
  3

 62
   256
 51
90.0
 52
90.0
 71
     2
 49
0.5
 62
   256
  6
BYLAYER
 49
-0.5
 62
   256
  6
BYLAYER
  0
ACDBPLACEHOLDER
  5
F
102
{ACAD_REACTORS
330
E
102
}
330
E
  0
DICTIONARYVAR
  5
54
102
{ACAD_REACTORS
330
52
102
}
330
52
100
DictionaryVariables
280
     0
  1
2
  0
DICTIONARYVAR
  5
53
102
{ACAD_REACTORS
330
52
102
}
330
52
100
DictionaryVariables
280
     0
  1
1
  0
ENDSEC
  0
EOF
