  0
SECTION
  2
HEADER
  9
$ACADVER
  1
AC1015
  9
$ACADMAINTVER
 70
    13
  9
$DWGCODEPAGE
  3
ANSI_1252
  9
$INSBASE
 10
0.0
 20
0.0
 30
0.0
  9
$EXTMIN
 10
-226.5192913567911
 20
190.3211404610956
 30
-0.0000000000112498
  9
$EXTMAX
 10
2.361540629211503
 20
332.0625846548706
 30
0.0000000000002956
  9
$LIMMIN
 10
0.0
 20
0.0
  9
$LIMMAX
 10
420.0
 20
297.0
  9
$ORTHOMODE
 70
     1
  9
$REGENMODE
 70
     1
  9
$FILLMODE
 70
     1
  9
$QTEXTMODE
 70
     0
  9
$MIRRTEXT
 70
     1
  9
$LTSCALE
 40
1.0
  9
$ATTMODE
 70
     1
  9
$TEXTSIZE
 40
2.5
  9
$TRACEWID
 40
1.0
  9
$TEXTSTYLE
  7
Standard
  9
$CLAYER
  8
Deck profile
  9
$CELTYPE
  6
ByLayer
  9
$CECOLOR
 62
   256
  9
$CELTSCALE
 40
1.0
  9
$DISPSILH
 70
     0
  9
$DIMSCALE
 40
1.0
  9
$DIMASZ
 40
2.0
  9
$DIMEXO
 40
5.0
  9
$DIMDLI
 40
3.75
  9
$DIMRND
 40
0.0
  9
$DIMDLE
 40
0.0
  9
$DIMEXE
 40
2.0
  9
$DIMTP
 40
0.0
  9
$DIMTM
 40
0.0
  9
$DIMTXT
 40
2.0
  9
$DIMCEN
 40
2.5
  9
$DIMTSZ
 40
0.0
  9
$DIMTOL
 70
     0
  9
$DIMLIM
 70
     0
  9
$DIMTIH
 70
     0
  9
$DIMTOH
 70
     0
  9
$DIMSE1
 70
     0
  9
$DIMSE2
 70
     0
  9
$DIMTAD
 70
     0
  9
$DIMZIN
 70
     8
  9
$DIMBLK
  1

  9
$DIMASO
 70
     1
  9
$DIMSHO
 70
     1
  9
$DIMPOST
  1

  9
$DIMAPOST
  1

  9
$DIMALT
 70
     0
  9
$DIMALTD
 70
     3
  9
$DIMALTF
 40
0.03937007874016
  9
$DIMLFAC
 40
1.0
  9
$DIMTOFL
 70
     1
  9
$DIMTVP
 40
0.0
  9
$DIMTIX
 70
     0
  9
$DIMSOXD
 70
     0
  9
$DIMSAH
 70
     0
  9
$DIMBLK1
  1

  9
$DIMBLK2
  1

  9
$DIMSTYLE
  2
Copy of ISO-25
  9
$DIMCLRD
 70
     0
  9
$DIMCLRE
 70
     0
  9
$DIMCLRT
 70
     0
  9
$DIMTFAC
 40
1.0
  9
$DIMGAP
 40
5.0
  9
$DIMJUST
 70
     0
  9
$DIMSD1
 70
     0
  9
$DIMSD2
 70
     0
  9
$DIMTOLJ
 70
     0
  9
$DIMTZIN
 70
     8
  9
$DIMALTZ
 70
     0
  9
$DIMALTTZ
 70
     0
  9
$DIMUPT
 70
     0
  9
$DIMDEC
 70
     1
  9
$DIMTDEC
 70
     1
  9
$DIMALTU
 70
     2
  9
$DIMALTTD
 70
     3
  9
$DIMTXSTY
  7
Standard
  9
$DIMAUNIT
 70
     0
  9
$DIMADEC
 70
     0
  9
$DIMALTRND
 40
0.0
  9
$DIMAZIN
 70
     0
  9
$DIMDSEP
 70
    46
  9
$DIMATFIT
 70
     3
  9
$DIMFRAC
 70
     0
  9
$DIMLDRBLK
  1

  9
$DIMLUNIT
 70
     2
  9
$DIMLWD
 70
    -2
  9
$DIMLWE
 70
    -2
  9
$DIMTMOVE
 70
     0
  9
$LUNITS
 70
     2
  9
$LUPREC
 70
     4
  9
$SKETCHINC
 40
1.0
  9
$FILLETRAD
 40
10.0
  9
$AUNITS
 70
     0
  9
$AUPREC
 70
     0
  9
$MENU
  1
.
  9
$ELEVATION
 40
0.0
  9
$PELEVATION
 40
0.0
  9
$THICKNESS
 40
0.0
  9
$LIMCHECK
 70
     0
  9
$CHAMFERA
 40
10.0
  9
$CHAMFERB
 40
10.0
  9
$CHAMFERC
 40
20.0
  9
$CHAMFERD
 40
0.0
  9
$SKPOLY
 70
     0
  9
$TDCREATE
 40
2456260.941621944
  9
$TDUCREATE
 40
2456260.504121944
  9
$TDUPDATE
 40
2456261.950786215
  9
$TDUUPDATE
 40
2456261.513286215
  9
$TDINDWG
 40
0.1111887037
  9
$TDUSRTIMER
 40
0.1111883449
  9
$USRTIMER
 70
     1
  9
$ANGBASE
 50
0.0
  9
$ANGDIR
 70
     0
  9
$PDMODE
 70
     0
  9
$PDSIZE
 40
0.0
  9
$PLINEWID
 40
0.0
  9
$SPLFRAME
 70
     0
  9
$SPLINETYPE
 70
     6
  9
$SPLINESEGS
 70
     8
  9
$HANDSEED
  5
A20
  9
$SURFTAB1
 70
     6
  9
$SURFTAB2
 70
     6
  9
$SURFTYPE
 70
     6
  9
$SURFU
 70
     6
  9
$SURFV
 70
     6
  9
$UCSBASE
  2

  9
$UCSNAME
  2

  9
$UCSORG
 10
0.0
 20
0.0
 30
0.0
  9
$UCSXDIR
 10
1.0
 20
0.0
 30
0.0
  9
$UCSYDIR
 10
0.0
 20
1.0
 30
0.0
  9
$UCSORTHOREF
  2

  9
$UCSORTHOVIEW
 70
     0
  9
$UCSORGTOP
 10
0.0
 20
0.0
 30
0.0
  9
$UCSORGBOTTOM
 10
0.0
 20
0.0
 30
0.0
  9
$UCSORGLEFT
 10
0.0
 20
0.0
 30
0.0
  9
$UCSORGRIGHT
 10
0.0
 20
0.0
 30
0.0
  9
$UCSORGFRONT
 10
0.0
 20
0.0
 30
0.0
  9
$UCSORGBACK
 10
0.0
 20
0.0
 30
0.0
  9
$PUCSBASE
  2

  9
$PUCSNAME
  2

  9
$PUCSORG
 10
0.0
 20
0.0
 30
0.0
  9
$PUCSXDIR
 10
1.0
 20
0.0
 30
0.0
  9
$PUCSYDIR
 10
0.0
 20
1.0
 30
0.0
  9
$PUCSORTHOREF
  2

  9
$PUCSORTHOVIEW
 70
     0
  9
$PUCSORGTOP
 10
0.0
 20
0.0
 30
0.0
  9
$PUCSORGBOTTOM
 10
0.0
 20
0.0
 30
0.0
  9
$PUCSORGLEFT
 10
0.0
 20
0.0
 30
0.0
  9
$PUCSORGRIGHT
 10
0.0
 20
0.0
 30
0.0
  9
$PUCSORGFRONT
 10
0.0
 20
0.0
 30
0.0
  9
$PUCSORGBACK
 10
0.0
 20
0.0
 30
0.0
  9
$USERI1
 70
     0
  9
$USERI2
 70
     0
  9
$USERI3
 70
     0
  9
$USERI4
 70
     0
  9
$USERI5
 70
     0
  9
$USERR1
 40
0.0
  9
$USERR2
 40
0.0
  9
$USERR3
 40
0.0
  9
$USERR4
 40
0.0
  9
$USERR5
 40
0.0
  9
$WORLDVIEW
 70
     1
  9
$SHADEDGE
 70
     3
  9
$SHADEDIF
 70
    70
  9
$TILEMODE
 70
     1
  9
$MAXACTVP
 70
    64
  9
$PINSBASE
 10
0.0
 20
0.0
 30
0.0
  9
$PLIMCHECK
 70
     0
  9
$PEXTMIN
 10
1.000000000000000E+20
 20
1.000000000000000E+20
 30
1.000000000000000E+20
  9
$PEXTMAX
 10
-1.000000000000000E+20
 20
-1.000000000000000E+20
 30
-1.000000000000000E+20
  9
$PLIMMIN
 10
0.0
 20
0.0
  9
$PLIMMAX
 10
420.0
 20
297.0
  9
$UNITMODE
 70
     0
  9
$VISRETAIN
 70
     1
  9
$PLINEGEN
 70
     0
  9
$PSLTSCALE
 70
     1
  9
$TREEDEPTH
 70
  3020
  9
$CMLSTYLE
  2
Standard
  9
$CMLJUST
 70
     0
  9
$CMLSCALE
 40
20.0
  9
$PROXYGRAPHICS
 70
     1
  9
$MEASUREMENT
 70
     1
  9
$CELWEIGHT
370
    -1
  9
$ENDCAPS
280
     0
  9
$JOINSTYLE
280
     0
  9
$LWDISPLAY
290
     0
  9
$INSUNITS
 70
     4
  9
$HYPERLINKBASE
  1

  9
$STYLESHEET
  1

  9
$XEDIT
290
     1
  9
$CEPSNTYPE
380
     0
  9
$PSTYLEMODE
290
     1
  9
$FINGERPRINTGUID
  2
{52878EA4-82BC-4E67-B72A-FA1EFA60E85D}
  9
$VERSIONGUID
  2
{42E94892-F176-40BB-B7AD-257BF8201505}
  9
$EXTNAMES
290
     1
  9
$PSVPSCALE
 40
0.0
  9
$OLESTARTUP
290
     0
  0
ENDSEC
  0
SECTION
  2
CLASSES
  0
CLASS
  1
ACDBDICTIONARYWDFLT
  2
AcDbDictionaryWithDefault
  3
AutoCAD 2000
 90
        0
280
     0
281
     0
  0
CLASS
  1
ACDBPLACEHOLDER
  2
AcDbPlaceHolder
  3
AutoCAD 2000
 90
        0
280
     0
281
     0
  0
CLASS
  1
LAYOUT
  2
AcDbLayout
  3
AutoCAD 2000
 90
        0
280
     0
281
     0
  0
CLASS
  1
DIMASSOC
  2
AcDbDimAssoc
  3
"AcDbDimAssoc|Product Desc:     AcDim ARX App For Dimension|Company:          Autodesk, Inc.|WEB Address:      www.autodesk.com"
 90
        0
280
     0
281
     0
  0
CLASS
  1
DICTIONARYVAR
  2
AcDbDictionaryVar
  3
AutoCAD 2000
 90
        0
280
     0
281
     0
  0
ENDSEC
  0
SECTION
  2
TABLES
  0
TABLE
  2
VPORT
  5
8
330
0
100
AcDbSymbolTable
 70
     4
  0
VPORT
  5
A1F
330
8
100
AcDbSymbolTableRecord
100
AcDbViewportTableRecord
  2
*Active
 70
     0
 10
0.0
 20
0.0
 11
1.0
 21
1.0
 12
-69.44550361234701
 22
277.5897759510359
 13
0.0
 23
0.0
 14
10.0
 24
10.0
 15
10.0
 25
10.0
 16
0.0
 26
0.0
 36
1.0
 17
0.0
 27
0.0
 37
0.0
 40
252.2784436437311
 41
2.424812030075187
 42
50.0
 43
0.0
 44
0.0
 50
0.0
 51
0.0
 71
     0
 72
   100
 73
     1
 74
     3
 75
     0
 76
     0
 77
     0
 78
     0
281
     0
 65
     1
110
0.0
120
0.0
130
0.0
111
1.0
121
0.0
131
0.0
112
0.0
122
1.0
132
0.0
 79
     0
146
0.0
  0
ENDTAB
  0
TABLE
  2
LTYPE
  5
5
330
0
100
AcDbSymbolTable
 70
     3
  0
LTYPE
  5
14
330
5
100
AcDbSymbolTableRecord
100
AcDbLinetypeTableRecord
  2
ByBlock
 70
     0
  3

 72
    65
 73
     0
 40
0.0
  0
LTYPE
  5
15
330
5
100
AcDbSymbolTableRecord
100
AcDbLinetypeTableRecord
  2
ByLayer
 70
     0
  3

 72
    65
 73
     0
 40
0.0
  0
LTYPE
  5
16
330
5
100
AcDbSymbolTableRecord
100
AcDbLinetypeTableRecord
  2
Continuous
 70
     0
  3
Solid line
 72
    65
 73
     0
 40
0.0
  0
LTYPE
  5
95A
330
5
100
AcDbSymbolTableRecord
100
AcDbLinetypeTableRecord
  2
ACAD_ISO02W100
 70
     0
  3
ISO dash __ __ __ __ __ __ __ __ __ __ __ __ __
 72
    65
 73
     2
 40
15.0
 49
12.0
 74
     0
 49
-3.0
 74
     0
  0
LTYPE
  5
95B
330
5
100
AcDbSymbolTableRecord
100
AcDbLinetypeTableRecord
  2
HIDDEN2
 70
     0
  3
Hidden (.5x) _ _ _ _ _ _ _ _ _ _ _ _ _ _ _ _ _
 72
    65
 73
     2
 40
4.762499999999999
 49
3.174999999999999
 74
     0
 49
-1.587499999999999
 74
     0
  0
ENDTAB
  0
TABLE
  2
LAYER
  5
2
330
0
100
AcDbSymbolTable
 70
     4
  0
LAYER
  5
10
330
2
100
AcDbSymbolTableRecord
100
AcDbLayerTableRecord
  2
0
 70
     0
 62
     7
  6
Continuous
370
    -3
390
F
  0
LAYER
  5
5F
330
2
100
AcDbSymbolTableRecord
100
AcDbLayerTableRecord
  2
Defpoints
 70
     0
 62
     7
  6
Continuous
290
     0
370
    -3
390
F
  0
LAYER
  5
7B
330
2
100
AcDbSymbolTableRecord
100
AcDbLayerTableRecord
  2
Deck profile
 70
     0
 62
     7
  6
Continuous
370
    -3
390
F
  0
LAYER
  5
107
330
2
100
AcDbSymbolTableRecord
100
AcDbLayerTableRecord
  2
Dimensions
 70
     0
 62
     7
  6
Continuous
370
    -3
390
F
  0
ENDTAB
  0
TABLE
  2
STYLE
  5
3
330
0
100
AcDbSymbolTable
 70
     2
  0
STYLE
  5
11
330
3
100
AcDbSymbolTableRecord
100
AcDbTextStyleTableRecord
  2
Standard
 70
     0
 40
0.0
 41
1.0
 50
0.0
 71
     0
 42
2.5
  3
txt
  4

  0
STYLE
  5
959
330
3
100
AcDbSymbolTableRecord
100
AcDbTextStyleTableRecord
  2

 70
     1
 40
0.0
 41
1.0
 50
0.0
 71
     0
 42
2.5
  3
ltypeshp.shx
  4

  0
ENDTAB
  0
TABLE
  2
VIEW
  5
6
330
0
100
AcDbSymbolTable
 70
     0
  0
ENDTAB
  0
TABLE
  2
UCS
  5
7
330
0
100
AcDbSymbolTable
 70
     0
  0
ENDTAB
  0
TABLE
  2
APPID
  5
9
330
0
100
AcDbSymbolTable
 70
     1
  0
APPID
  5
12
330
9
100
AcDbSymbolTableRecord
100
AcDbRegAppTableRecord
  2
ACAD
 70
     0
  0
ENDTAB
  0
TABLE
  2
DIMSTYLE
  5
A
330
0
100
AcDbSymbolTable
 70
     2
100
AcDbDimStyleTable
 71
     2
340
108
340
27
  0
DIMSTYLE
105
27
330
A
100
AcDbSymbolTableRecord
100
AcDbDimStyleTableRecord
  2
ISO-25
 70
     0
 41
2.5
 42
0.625
 43
3.75
 44
1.25
 73
     0
 74
     0
 77
     1
 78
     8
140
2.5
141
2.5
143
0.03937007874016
147
0.625
171
     3
172
     1
271
     2
272
     2
274
     3
278
    44
283
     0
284
     8
340
11
  0
DIMSTYLE
105
108
102
{ACAD_REACTORS
330
627
330
643
330
65F
330
67B
330
697
330
6A6
330
6C0
330
6DA
330
6F4
330
70E
102
}
330
A
100
AcDbSymbolTableRecord
100
AcDbDimStyleTableRecord
  2
Copy of ISO-25
 70
     0
 41
2.0
 42
5.0
 43
3.75
 44
2.0
 73
     0
 74
     0
 78
     8
140
2.0
141
2.5
143
0.03937007874016
147
5.0
171
     3
172
     1
271
     1
272
     1
274
     3
283
     0
284
     8
340
11
  0
ENDTAB
  0
TABLE
  2
BLOCK_RECORD
  5
1
330
0
100
AcDbSymbolTable
 70
    11
  0
BLOCK_RECORD
  5
1F
330
1
100
AcDbSymbolTableRecord
100
AcDbBlockTableRecord
  2
*Model_Space
340
22
  0
BLOCK_RECORD
  5
1B
330
1
100
AcDbSymbolTableRecord
100
AcDbBlockTableRecord
  2
*Paper_Space
340
1E
  0
BLOCK_RECORD
  5
23
330
1
100
AcDbSymbolTableRecord
100
AcDbBlockTableRecord
  2
*Paper_Space0
340
26
  0
BLOCK_RECORD
  5
628
330
1
100
AcDbSymbolTableRecord
100
AcDbBlockTableRecord
  2
*D1
340
0
  0
BLOCK_RECORD
  5
644
330
1
100
AcDbSymbolTableRecord
100
AcDbBlockTableRecord
  2
*D2
340
0
  0
BLOCK_RECORD
  5
660
330
1
100
AcDbSymbolTableRecord
100
AcDbBlockTableRecord
  2
*D3
340
0
  0
BLOCK_RECORD
  5
67C
330
1
100
AcDbSymbolTableRecord
100
AcDbBlockTableRecord
  2
*D4
340
0
  0
BLOCK_RECORD
  5
698
330
1
100
AcDbSymbolTableRecord
100
AcDbBlockTableRecord
  2
*D5
340
0
  0
BLOCK_RECORD
  5
6A7
330
1
100
AcDbSymbolTableRecord
100
AcDbBlockTableRecord
  2
*D6
340
0
  0
BLOCK_RECORD
  5
6C1
330
1
100
AcDbSymbolTableRecord
100
AcDbBlockTableRecord
  2
*D7
340
0
  0
BLOCK_RECORD
  5
6DB
330
1
100
AcDbSymbolTableRecord
100
AcDbBlockTableRecord
  2
*D8
340
0
  0
BLOCK_RECORD
  5
6F5
330
1
100
AcDbSymbolTableRecord
100
AcDbBlockTableRecord
  2
*D9
340
0
  0
BLOCK_RECORD
  5
70F
330
1
100
AcDbSymbolTableRecord
100
AcDbBlockTableRecord
  2
*D10
340
0
  0
ENDTAB
  0
ENDSEC
  0
SECTION
  2
BLOCKS
  0
BLOCK
  5
20
330
1F
100
AcDbEntity
  8
0
100
AcDbBlockBegin
  2
*Model_Space
 70
     0
 10
0.0
 20
0.0
 30
0.0
  3
*Model_Space
  1

  0
ENDBLK
  5
21
330
1F
100
AcDbEntity
  8
0
100
AcDbBlockEnd
  0
BLOCK
  5
1C
330
1B
100
AcDbEntity
 67
     1
  8
0
100
AcDbBlockBegin
  2
*Paper_Space
 70
     0
 10
0.0
 20
0.0
 30
0.0
  3
*Paper_Space
  1

  0
ENDBLK
  5
1D
330
1B
100
AcDbEntity
 67
     1
  8
0
100
AcDbBlockEnd
  0
BLOCK
  5
24
330
23
100
AcDbEntity
  8
0
100
AcDbBlockBegin
  2
*Paper_Space0
 70
     0
 10
0.0
 20
0.0
 30
0.0
  3
*Paper_Space0
  1

  0
ENDBLK
  5
25
330
23
100
AcDbEntity
  8
0
100
AcDbBlockEnd
  0
BLOCK
  5
634
330
628
100
AcDbEntity
  8
0
100
AcDbBlockBegin
  2
*D1
 70
     1
 10
0.0
 20
0.0
 30
0.0
  3
*D1
  1

  0
LINE
  5
A07
330
628
100
AcDbEntity
  8
Dimensions
 62
     0
370
    -2
100
AcDbLine
 10
-177.0
 20
267.0
 30
0.0
 11
-174.0
 21
267.0
 31
0.0
  0
LINE
  5
A08
330
628
100
AcDbEntity
  8
Dimensions
 62
     0
370
    -2
100
AcDbLine
 10
-177.0
 20
274.0
 30
0.0
 11
-174.0
 21
274.0
 31
0.0
  0
LINE
  5
A09
330
628
100
AcDbEntity
  8
Dimensions
 62
     0
370
    -2
100
AcDbLine
 10
-172.0
 20
265.0
 30
0.0
 11
-172.0
 21
263.0
 31
0.0
  0
LINE
  5
A0A
330
628
100
AcDbEntity
  8
Dimensions
 62
     0
370
    -2
100
AcDbLine
 10
-172.0
 20
276.0
 30
0.0
 11
-172.0
 21
286.1175814259429
 31
0.0
  0
LINE
  5
A0B
330
628
100
AcDbEntity
  8
Dimensions
 62
     0
370
    -2
100
AcDbLine
 10
-172.0
 20
267.0
 30
0.0
 11
-172.0
 21
274.0
 31
0.0
  0
SOLID
  5
A0C
330
628
100
AcDbEntity
  8
Dimensions
 62
     0
100
AcDbTrace
 10
-172.3333333333333
 20
265.0
 30
0.0
 11
-171.6666666666666
 21
265.0
 31
0.0
 12
-172.0
 22
267.0
 32
0.0
 13
-172.0
 23
267.0
 33
0.0
  0
SOLID
  5
A0D
330
628
100
AcDbEntity
  8
Dimensions
 62
     0
100
AcDbTrace
 10
-172.3333333333333
 20
276.0
 30
0.0
 11
-171.6666666666666
 21
276.0
 31
0.0
 12
-172.0
 22
274.0
 32
0.0
 13
-172.0
 23
274.0
 33
0.0
  0
MTEXT
  5
A0E
330
628
100
AcDbEntity
  8
Dimensions
 62
     0
100
AcDbMText
 10
-172.0
 20
291.7842480926095
 30
0.0
 40
2.0
 41
0.0
 71
     5
 72
     1
  1
7
 11
0.0000000000000001
 21
1.0
 31
0.0
 73
     1
 44
1.0
  0
POINT
  5
A0F
330
628
100
AcDbEntity
  8
Defpoints
 62
     0
100
AcDbPoint
 10
-172.0
 20
267.0
 30
0.0
  0
POINT
  5
A10
330
628
100
AcDbEntity
  8
Defpoints
 62
     0
100
AcDbPoint
 10
-172.0
 20
274.0
 30
0.0
  0
POINT
  5
A11
330
628
100
AcDbEntity
  8
Defpoints
 62
     0
100
AcDbPoint
 10
-172.0
 20
274.0
 30
0.0
  0
ENDBLK
  5
635
330
628
100
AcDbEntity
  8
0
100
AcDbBlockEnd
  0
BLOCK
  5
650
330
644
100
AcDbEntity
  8
0
100
AcDbBlockBegin
  2
*D2
 70
     1
 10
0.0
 20
0.0
 30
0.0
  3
*D2
  1

  0
LINE
  5
9A0
330
644
100
AcDbEntity
  8
Dimensions
 62
     0
370
    -2
100
AcDbLine
 10
-105.0
 20
267.0
 30
0.0
 11
-102.0
 21
267.0
 31
0.0
  0
LINE
  5
9A1
330
644
100
AcDbEntity
  8
Dimensions
 62
     0
370
    -2
100
AcDbLine
 10
-105.0
 20
286.5
 30
0.0
 11
-102.0
 21
286.5
 31
0.0
  0
LINE
  5
9A2
330
644
100
AcDbEntity
  8
Dimensions
 62
     0
370
    -2
100
AcDbLine
 10
-100.0
 20
269.0
 30
0.0
 11
-100.0
 21
284.5
 31
0.0
  0
LINE
  5
9A3
330
644
100
AcDbEntity
  8
Dimensions
 62
     0
370
    -2
100
AcDbLine
 10
-100.0
 20
286.5
 30
0.0
 11
-100.0
 21
297.8623281375864
 31
0.0
  0
SOLID
  5
9A4
330
644
100
AcDbEntity
  8
Dimensions
 62
     0
100
AcDbTrace
 10
-100.3333333333333
 20
269.0
 30
0.0
 11
-99.66666666666668
 21
269.0
 31
0.0
 12
-100.0
 22
267.0
 32
0.0
 13
-100.0
 23
267.0
 33
0.0
  0
SOLID
  5
9A5
330
644
100
AcDbEntity
  8
Dimensions
 62
     0
100
AcDbTrace
 10
-100.3333333333333
 20
284.5
 30
0.0
 11
-99.66666666666668
 21
284.5
 31
0.0
 12
-100.0
 22
286.5
 32
0.0
 13
-100.0
 23
286.5
 33
0.0
  0
MTEXT
  5
9A6
330
644
100
AcDbEntity
  8
Dimensions
 62
     0
100
AcDbMText
 10
-100.0
 20
305.5289948042531
 30
0.0
 40
2.0
 41
0.0
 71
     5
 72
     1
  1
19.5
 11
0.0000000000000001
 21
1.0
 31
0.0
 73
     1
 44
1.0
  0
POINT
  5
9A7
330
644
100
AcDbEntity
  8
Defpoints
 62
     0
100
AcDbPoint
 10
-100.0
 20
267.0
 30
0.0
  0
POINT
  5
9A8
330
644
100
AcDbEntity
  8
Defpoints
 62
     0
100
AcDbPoint
 10
-100.0
 20
286.5
 30
0.0
  0
POINT
  5
9A9
330
644
100
AcDbEntity
  8
Defpoints
 62
     0
100
AcDbPoint
 10
-100.0
 20
286.5
 30
0.0
  0
ENDBLK
  5
651
330
644
100
AcDbEntity
  8
0
100
AcDbBlockEnd
  0
BLOCK
  5
66C
330
660
100
AcDbEntity
  8
0
100
AcDbBlockBegin
  2
*D3
 70
     1
 10
0.0
 20
0.0
 30
0.0
  3
*D3
  1

  0
LINE
  5
9FD
330
660
100
AcDbEntity
  8
Dimensions
 62
     0
370
    -2
100
AcDbLine
 10
-55.0
 20
267.0
 30
0.0
 11
-52.00000000000001
 21
267.0
 31
0.0
  0
LINE
  5
9FE
330
660
100
AcDbEntity
  8
Dimensions
 62
     0
370
    -2
100
AcDbLine
 10
-55.0
 20
291.5
 30
0.0
 11
-52.00000000000001
 21
291.5
 31
0.0
  0
LINE
  5
9FF
330
660
100
AcDbEntity
  8
Dimensions
 62
     0
370
    -2
100
AcDbLine
 10
-50.00000000000001
 20
269.0
 30
0.0
 11
-50.0
 21
289.4999999999999
 31
0.0
  0
LINE
  5
A00
330
660
100
AcDbEntity
  8
Dimensions
 62
     0
370
    -2
100
AcDbLine
 10
-50.0
 20
291.5
 30
0.0
 11
-50.0
 21
304.6028067098159
 31
0.0
  0
SOLID
  5
A01
330
660
100
AcDbEntity
  8
Dimensions
 62
     0
100
AcDbTrace
 10
-50.33333333333334
 20
269.0
 30
0.0
 11
-49.66666666666668
 21
269.0
 31
0.0
 12
-50.00000000000001
 22
267.0
 32
0.0
 13
-50.00000000000001
 23
267.0
 33
0.0
  0
SOLID
  5
A02
330
660
100
AcDbEntity
  8
Dimensions
 62
     0
100
AcDbTrace
 10
-50.33333333333334
 20
289.4999999999999
 30
0.0
 11
-49.66666666666667
 21
289.4999999999999
 31
0.0
 12
-50.0
 22
291.5
 32
0.0
 13
-50.0
 23
291.5
 33
0.0
  0
MTEXT
  5
A03
330
660
100
AcDbEntity
  8
Dimensions
 62
     0
100
AcDbMText
 10
-50.00000000000005
 20
312.6028067098159
 30
0.0
 40
2.0
 41
0.0
 71
     5
 72
     1
  1
24.5
 11
0.0000000000000001
 21
1.0
 31
0.0
 73
     1
 44
1.0
  0
POINT
  5
A04
330
660
100
AcDbEntity
  8
Defpoints
 62
     0
100
AcDbPoint
 10
-50.0
 20
267.0
 30
0.0
  0
POINT
  5
A05
330
660
100
AcDbEntity
  8
Defpoints
 62
     0
100
AcDbPoint
 10
-50.0
 20
291.5
 30
0.0
  0
POINT
  5
A06
330
660
100
AcDbEntity
  8
Defpoints
 62
     0
100
AcDbPoint
 10
-50.0
 20
291.5
 30
0.0
  0
ENDBLK
  5
66D
330
660
100
AcDbEntity
  8
0
100
AcDbBlockEnd
  0
BLOCK
  5
688
330
67C
100
AcDbEntity
  8
0
100
AcDbBlockBegin
  2
*D4
 70
     1
 10
0.0
 20
0.0
 30
0.0
  3
*D4
  1

  0
LINE
  5
9B6
330
67C
100
AcDbEntity
  8
Dimensions
 62
     0
370
    -2
100
AcDbLine
 10
-5.0
 20
267.0
 30
0.0
 11
-2.000000000000007
 21
267.0
 31
0.0
  0
LINE
  5
9B7
330
67C
100
AcDbEntity
  8
Dimensions
 62
     0
370
    -2
100
AcDbLine
 10
-5.0
 20
293.5
 30
0.0
 11
-2.000000000000002
 21
293.5
 31
0.0
  0
LINE
  5
9B8
330
67C
100
AcDbEntity
  8
Dimensions
 62
     0
370
    -2
100
AcDbLine
 10
-0.0000000000000075
 20
269.0
 30
0.0
 11
-0.0000000000000025
 21
291.5
 31
0.0
  0
LINE
  5
9B9
330
67C
100
AcDbEntity
  8
Dimensions
 62
     0
370
    -2
100
AcDbLine
 10
-0.000000000000002
 20
293.5
 30
0.0
 11
0.0000000000000002
 21
303.6127632397853
 31
0.0
  0
SOLID
  5
9BA
330
67C
100
AcDbEntity
  8
Dimensions
 62
     0
100
AcDbTrace
 10
-0.3333333333333408
 20
269.0
 30
0.0
 11
0.3333333333333258
 21
269.0
 31
0.0
 12
-0.0000000000000079
 22
267.0
 32
0.0
 13
-0.0000000000000079
 23
267.0
 33
0.0
  0
SOLID
  5
9BB
330
67C
100
AcDbEntity
  8
Dimensions
 62
     0
100
AcDbTrace
 10
-0.3333333333333358
 20
291.5
 30
0.0
 11
0.3333333333333308
 21
291.5
 31
0.0
 12
-0.000000000000002
 22
293.5
 32
0.0
 13
-0.000000000000002
 23
293.5
 33
0.0
  0
MTEXT
  5
9BC
330
67C
100
AcDbEntity
  8
Dimensions
 62
     0
100
AcDbMText
 10
-0.000000000000048
 20
313.6127632397852
 30
0.0
 40
2.0
 41
0.0
 71
     5
 72
     1
  1
\A1;26.5\S+5^ -5;
 11
0.0000000000000001
 21
1.0
 31
0.0
 73
     1
 44
1.0
  0
POINT
  5
9BD
330
67C
100
AcDbEntity
  8
Defpoints
 62
     0
100
AcDbPoint
 10
0.0
 20
267.0
 30
0.0
  0
POINT
  5
9BE
330
67C
100
AcDbEntity
  8
Defpoints
 62
     0
100
AcDbPoint
 10
0.0
 20
293.5
 30
0.0
  0
POINT
  5
9BF
330
67C
100
AcDbEntity
  8
Defpoints
 62
     0
100
AcDbPoint
 10
-0.000000000000002
 20
293.5
 30
0.0
  0
ENDBLK
  5
689
330
67C
100
AcDbEntity
  8
0
100
AcDbBlockEnd
  0
BLOCK
  5
6A4
330
698
100
AcDbEntity
  8
0
100
AcDbBlockBegin
  2
*D5
 70
     1
 10
0.0
 20
0.0
 30
0.0
  3
*D5
  1

  0
LINE
  5
A12
330
698
100
AcDbEntity
  8
Dimensions
 62
     0
370
    -2
100
AcDbLine
 10
-155.0
 20
267.0
 30
0.0
 11
-152.0
 21
267.0
 31
0.0
  0
LINE
  5
A13
330
698
100
AcDbEntity
  8
Dimensions
 62
     0
370
    -2
100
AcDbLine
 10
-155.0
 20
279.0
 30
0.0
 11
-152.0
 21
279.0
 31
0.0
  0
LINE
  5
A14
330
698
100
AcDbEntity
  8
Dimensions
 62
     0
370
    -2
100
AcDbLine
 10
-150.0
 20
265.0
 30
0.0
 11
-150.0
 21
263.0
 31
0.0
  0
LINE
  5
A15
330
698
100
AcDbEntity
  8
Dimensions
 62
     0
370
    -2
100
AcDbLine
 10
-150.0
 20
281.0
 30
0.0
 11
-150.0
 21
290.1824050990139
 31
0.0
  0
LINE
  5
A16
330
698
100
AcDbEntity
  8
Dimensions
 62
     0
370
    -2
100
AcDbLine
 10
-150.0
 20
267.0
 30
0.0
 11
-150.0
 21
279.0
 31
0.0
  0
SOLID
  5
A17
330
698
100
AcDbEntity
  8
Dimensions
 62
     0
100
AcDbTrace
 10
-150.3333333333333
 20
265.0
 30
0.0
 11
-149.6666666666666
 21
265.0
 31
0.0
 12
-150.0
 22
267.0
 32
0.0
 13
-150.0
 23
267.0
 33
0.0
  0
SOLID
  5
A18
330
698
100
AcDbEntity
  8
Dimensions
 62
     0
100
AcDbTrace
 10
-150.3333333333333
 20
281.0
 30
0.0
 11
-149.6666666666666
 21
281.0
 31
0.0
 12
-150.0
 22
279.0
 32
0.0
 13
-150.0
 23
279.0
 33
0.0
  0
MTEXT
  5
A19
330
698
100
AcDbEntity
  8
Dimensions
 62
     0
100
AcDbMText
 10
-150.0
 20
296.5157384323472
 30
0.0
 40
2.0
 41
0.0
 71
     5
 72
     1
  1
12
 11
0.0000000000000001
 21
1.0
 31
0.0
 73
     1
 44
1.0
  0
POINT
  5
A1A
330
698
100
AcDbEntity
  8
Defpoints
 62
     0
100
AcDbPoint
 10
-150.0
 20
267.0
 30
0.0
  0
POINT
  5
A1B
330
698
100
AcDbEntity
  8
Defpoints
 62
     0
100
AcDbPoint
 10
-150.0
 20
279.0
 30
0.0
  0
POINT
  5
A1C
330
698
100
AcDbEntity
  8
Defpoints
 62
     0
100
AcDbPoint
 10
-150.0
 20
279.0
 30
0.0
  0
ENDBLK
  5
6A5
330
698
100
AcDbEntity
  8
0
100
AcDbBlockEnd
  0
BLOCK
  5
6B2
330
6A7
100
AcDbEntity
  8
0
100
AcDbBlockBegin
  2
*D6
 70
     1
 10
0.0
 20
0.0
 30
0.0
  3
*D6
  1

  0
LINE
  5
9CB
330
6A7
100
AcDbEntity
  8
Dimensions
 62
     0
370
    -2
100
AcDbLine
 10
-0.0000000000000003
 20
262.0
 30
0.0
 11
-0.0000000000000036
 21
207.8710710755225
 31
0.0
  0
LINE
  5
9CC
330
6A7
100
AcDbEntity
  8
Dimensions
 62
     0
370
    -2
100
AcDbLine
 10
-206.4999999999999
 20
262.0
 30
0.0
 11
-206.4999999999999
 21
207.8710710755225
 31
0.0
  0
LINE
  5
9CD
330
6A7
100
AcDbEntity
  8
Dimensions
 62
     0
370
    -2
100
AcDbLine
 10
-2.000000000000003
 20
209.8710710755225
 30
0.0
 11
-94.41666666666668
 21
209.8710710755225
 31
0.0
  0
LINE
  5
9CE
330
6A7
100
AcDbEntity
  8
Dimensions
 62
     0
370
    -2
100
AcDbLine
 10
-204.4999999999999
 20
209.8710710755225
 30
0.0
 11
-112.0833333333333
 21
209.8710710755225
 31
0.0
  0
SOLID
  5
9CF
330
6A7
100
AcDbEntity
  8
Dimensions
 62
     0
100
AcDbTrace
 10
-2.000000000000003
 20
210.2044044088558
 30
0.0
 11
-2.000000000000003
 21
209.5377377421892
 31
0.0
 12
-0.0000000000000035
 22
209.8710710755225
 32
0.0
 13
-0.0000000000000035
 23
209.8710710755225
 33
0.0
  0
SOLID
  5
9D0
330
6A7
100
AcDbEntity
  8
Dimensions
 62
     0
100
AcDbTrace
 10
-204.4999999999999
 20
210.2044044088558
 30
0.0
 11
-204.4999999999999
 21
209.5377377421892
 31
0.0
 12
-206.4999999999999
 22
209.8710710755225
 32
0.0
 13
-206.4999999999999
 23
209.8710710755225
 33
0.0
  0
MTEXT
  5
9D1
330
6A7
100
AcDbEntity
  8
Dimensions
 62
     0
100
AcDbMText
 10
-103.2499999999999
 20
209.8710710755225
 30
0.0
 40
2.0
 41
0.0
 71
     5
 72
     1
  1
206.5
 73
     1
 44
1.0
  0
POINT
  5
9D2
330
6A7
100
AcDbEntity
  8
Defpoints
 62
     0
100
AcDbPoint
 10
0.0
 20
267.0
 30
0.0
  0
POINT
  5
9D3
330
6A7
100
AcDbEntity
  8
Defpoints
 62
     0
100
AcDbPoint
 10
-206.4999999999999
 20
267.0
 30
0.0
  0
POINT
  5
9D4
330
6A7
100
AcDbEntity
  8
Defpoints
 62
     0
100
AcDbPoint
 10
-206.4999999999999
 20
209.8710710755225
 30
0.0
  0
ENDBLK
  5
6B3
330
6A7
100
AcDbEntity
  8
0
100
AcDbBlockEnd
  0
BLOCK
  5
6CC
330
6C1
100
AcDbEntity
  8
0
100
AcDbBlockBegin
  2
*D7
 70
     1
 10
0.0
 20
0.0
 30
0.0
  3
*D7
  1

  0
LINE
  5
9D5
330
6C1
100
AcDbEntity
  8
Dimensions
 62
     0
370
    -2
100
AcDbLine
 10
-0.0000000000000003
 20
262.0
 30
0.0
 11
-0.0000000000000013
 21
246.2689700554582
 31
0.0
  0
LINE
  5
9D6
330
6C1
100
AcDbEntity
  8
Dimensions
 62
     0
370
    -2
100
AcDbLine
 10
-50.0
 20
262.0
 30
0.0
 11
-50.0
 21
246.2689700554582
 31
0.0
  0
LINE
  5
9D7
330
6C1
100
AcDbEntity
  8
Dimensions
 62
     0
370
    -2
100
AcDbLine
 10
-2.000000000000001
 20
248.2689700554582
 30
0.0
 11
-19.65145360725228
 21
248.2689700554582
 31
0.0
  0
LINE
  5
9D8
330
6C1
100
AcDbEntity
  8
Dimensions
 62
     0
370
    -2
100
AcDbLine
 10
-48.0
 20
248.2689700554582
 30
0.0
 11
-32.65145360725227
 21
248.2689700554582
 31
0.0
  0
SOLID
  5
9D9
330
6C1
100
AcDbEntity
  8
Dimensions
 62
     0
100
AcDbTrace
 10
-2.000000000000001
 20
248.6023033887915
 30
0.0
 11
-2.000000000000001
 21
247.9356367221249
 31
0.0
 12
-0.0000000000000011
 22
248.2689700554582
 32
0.0
 13
-0.0000000000000011
 23
248.2689700554582
 33
0.0
  0
SOLID
  5
9DA
330
6C1
100
AcDbEntity
  8
Dimensions
 62
     0
100
AcDbTrace
 10
-48.0
 20
248.6023033887915
 30
0.0
 11
-48.0
 21
247.9356367221249
 31
0.0
 12
-50.0
 22
248.2689700554582
 32
0.0
 13
-50.0
 23
248.2689700554582
 33
0.0
  0
MTEXT
  5
9DB
330
6C1
100
AcDbEntity
  8
Dimensions
 62
     0
100
AcDbMText
 10
-26.15145360725227
 20
248.2689700554582
 30
0.0
 40
2.0
 41
0.0
 71
     5
 72
     1
  1
50
 73
     1
 44
1.0
  0
POINT
  5
9DC
330
6C1
100
AcDbEntity
  8
Defpoints
 62
     0
100
AcDbPoint
 10
0.0
 20
267.0
 30
0.0
  0
POINT
  5
9DD
330
6C1
100
AcDbEntity
  8
Defpoints
 62
     0
100
AcDbPoint
 10
-50.0
 20
267.0
 30
0.0
  0
POINT
  5
9DE
330
6C1
100
AcDbEntity
  8
Defpoints
 62
     0
100
AcDbPoint
 10
-50.0
 20
248.2689700554582
 30
0.0
  0
ENDBLK
  5
6CD
330
6C1
100
AcDbEntity
  8
0
100
AcDbBlockEnd
  0
BLOCK
  5
6E6
330
6DB
100
AcDbEntity
  8
0
100
AcDbBlockBegin
  2
*D8
 70
     1
 10
0.0
 20
0.0
 30
0.0
  3
*D8
  1

  0
LINE
  5
9DF
330
6DB
100
AcDbEntity
  8
Dimensions
 62
     0
370
    -2
100
AcDbLine
 10
-0.0000000000000003
 20
262.0
 30
0.0
 11
-0.0000000000000018
 21
236.8379067354917
 31
0.0
  0
LINE
  5
9E0
330
6DB
100
AcDbEntity
  8
Dimensions
 62
     0
370
    -2
100
AcDbLine
 10
-100.0
 20
262.0
 30
0.0
 11
-100.0
 21
236.8379067354917
 31
0.0
  0
LINE
  5
9E1
330
6DB
100
AcDbEntity
  8
Dimensions
 62
     0
370
    -2
100
AcDbLine
 10
-2.000000000000001
 20
238.8379067354917
 30
0.0
 11
-43.0
 21
238.8379067354917
 31
0.0
  0
LINE
  5
9E2
330
6DB
100
AcDbEntity
  8
Dimensions
 62
     0
370
    -2
100
AcDbLine
 10
-98.0
 20
238.8379067354917
 30
0.0
 11
-57.0
 21
238.8379067354917
 31
0.0
  0
SOLID
  5
9E3
330
6DB
100
AcDbEntity
  8
Dimensions
 62
     0
100
AcDbTrace
 10
-2.000000000000001
 20
239.1712400688251
 30
0.0
 11
-2.000000000000001
 21
238.5045734021584
 31
0.0
 12
-0.0000000000000017
 22
238.8379067354917
 32
0.0
 13
-0.0000000000000017
 23
238.8379067354917
 33
0.0
  0
SOLID
  5
9E4
330
6DB
100
AcDbEntity
  8
Dimensions
 62
     0
100
AcDbTrace
 10
-98.0
 20
239.1712400688251
 30
0.0
 11
-98.0
 21
238.5045734021584
 31
0.0
 12
-100.0
 22
238.8379067354917
 32
0.0
 13
-100.0
 23
238.8379067354917
 33
0.0
  0
MTEXT
  5
9E5
330
6DB
100
AcDbEntity
  8
Dimensions
 62
     0
100
AcDbMText
 10
-50.0
 20
238.8379067354917
 30
0.0
 40
2.0
 41
0.0
 71
     5
 72
     1
  1
100
 73
     1
 44
1.0
  0
POINT
  5
9E6
330
6DB
100
AcDbEntity
  8
Defpoints
 62
     0
100
AcDbPoint
 10
0.0
 20
267.0
 30
0.0
  0
POINT
  5
9E7
330
6DB
100
AcDbEntity
  8
Defpoints
 62
     0
100
AcDbPoint
 10
-100.0
 20
267.0
 30
0.0
  0
POINT
  5
9E8
330
6DB
100
AcDbEntity
  8
Defpoints
 62
     0
100
AcDbPoint
 10
-100.0
 20
238.8379067354917
 30
0.0
  0
ENDBLK
  5
6E7
330
6DB
100
AcDbEntity
  8
0
100
AcDbBlockEnd
  0
BLOCK
  5
700
330
6F5
100
AcDbEntity
  8
0
100
AcDbBlockBegin
  2
*D9
 70
     1
 10
0.0
 20
0.0
 30
0.0
  3
*D9
  1

  0
LINE
  5
9E9
330
6F5
100
AcDbEntity
  8
Dimensions
 62
     0
370
    -2
100
AcDbLine
 10
-0.0000000000000003
 20
262.0
 30
0.0
 11
-0.0000000000000025
 21
226.5086471162602
 31
0.0
  0
LINE
  5
9EA
330
6F5
100
AcDbEntity
  8
Dimensions
 62
     0
370
    -2
100
AcDbLine
 10
-150.0
 20
262.0
 30
0.0
 11
-150.0
 21
226.5086471162602
 31
0.0
  0
LINE
  5
9EB
330
6F5
100
AcDbEntity
  8
Dimensions
 62
     0
370
    -2
100
AcDbLine
 10
-2.000000000000002
 20
228.5086471162602
 30
0.0
 11
-67.83333333333333
 21
228.5086471162602
 31
0.0
  0
LINE
  5
9EC
330
6F5
100
AcDbEntity
  8
Dimensions
 62
     0
370
    -2
100
AcDbLine
 10
-148.0
 20
228.5086471162602
 30
0.0
 11
-82.16666666666666
 21
228.5086471162602
 31
0.0
  0
SOLID
  5
9ED
330
6F5
100
AcDbEntity
  8
Dimensions
 62
     0
100
AcDbTrace
 10
-2.000000000000002
 20
228.8419804495935
 30
0.0
 11
-2.000000000000002
 21
228.1753137829269
 31
0.0
 12
-0.0000000000000024
 22
228.5086471162602
 32
0.0
 13
-0.0000000000000024
 23
228.5086471162602
 33
0.0
  0
SOLID
  5
9EE
330
6F5
100
AcDbEntity
  8
Dimensions
 62
     0
100
AcDbTrace
 10
-148.0
 20
228.8419804495935
 30
0.0
 11
-148.0
 21
228.1753137829269
 31
0.0
 12
-150.0
 22
228.5086471162602
 32
0.0
 13
-150.0
 23
228.5086471162602
 33
0.0
  0
MTEXT
  5
9EF
330
6F5
100
AcDbEntity
  8
Dimensions
 62
     0
100
AcDbMText
 10
-75.0
 20
228.5086471162602
 30
0.0
 40
2.0
 41
0.0
 71
     5
 72
     1
  1
150
 73
     1
 44
1.0
  0
POINT
  5
9F0
330
6F5
100
AcDbEntity
  8
Defpoints
 62
     0
100
AcDbPoint
 10
0.0
 20
267.0
 30
0.0
  0
POINT
  5
9F1
330
6F5
100
AcDbEntity
  8
Defpoints
 62
     0
100
AcDbPoint
 10
-150.0
 20
267.0
 30
0.0
  0
POINT
  5
9F2
330
6F5
100
AcDbEntity
  8
Defpoints
 62
     0
100
AcDbPoint
 10
-150.0
 20
228.5086471162602
 30
0.0
  0
ENDBLK
  5
701
330
6F5
100
AcDbEntity
  8
0
100
AcDbBlockEnd
  0
BLOCK
  5
71A
330
70F
100
AcDbEntity
  8
0
100
AcDbBlockBegin
  2
*D10
 70
     1
 10
0.0
 20
0.0
 30
0.0
  3
*D10
  1

  0
LINE
  5
9F3
330
70F
100
AcDbEntity
  8
Dimensions
 62
     0
370
    -2
100
AcDbLine
 10
-0.0000000000000003
 20
262.0
 30
0.0
 11
-0.000000000000003
 21
217.7512321095846
 31
0.0
  0
LINE
  5
9F4
330
70F
100
AcDbEntity
  8
Dimensions
 62
     0
370
    -2
100
AcDbLine
 10
-172.0
 20
262.0
 30
0.0
 11
-172.0
 21
217.7512321095846
 31
0.0
  0
LINE
  5
9F5
330
70F
100
AcDbEntity
  8
Dimensions
 62
     0
370
    -2
100
AcDbLine
 10
-2.000000000000003
 20
219.7512321095846
 30
0.0
 11
-78.66666666666667
 21
219.7512321095846
 31
0.0
  0
LINE
  5
9F6
330
70F
100
AcDbEntity
  8
Dimensions
 62
     0
370
    -2
100
AcDbLine
 10
-170.0
 20
219.7512321095846
 30
0.0
 11
-93.33333333333333
 21
219.7512321095846
 31
0.0
  0
SOLID
  5
9F7
330
70F
100
AcDbEntity
  8
Dimensions
 62
     0
100
AcDbTrace
 10
-2.000000000000003
 20
220.0845654429179
 30
0.0
 11
-2.000000000000003
 21
219.4178987762513
 31
0.0
 12
-0.0000000000000029
 22
219.7512321095846
 32
0.0
 13
-0.0000000000000029
 23
219.7512321095846
 33
0.0
  0
SOLID
  5
9F8
330
70F
100
AcDbEntity
  8
Dimensions
 62
     0
100
AcDbTrace
 10
-170.0
 20
220.0845654429179
 30
0.0
 11
-170.0
 21
219.4178987762513
 31
0.0
 12
-172.0
 22
219.7512321095846
 32
0.0
 13
-172.0
 23
219.7512321095846
 33
0.0
  0
MTEXT
  5
9F9
330
70F
100
AcDbEntity
  8
Dimensions
 62
     0
100
AcDbMText
 10
-86.0
 20
219.7512321095846
 30
0.0
 40
2.0
 41
0.0
 71
     5
 72
     1
  1
172
 73
     1
 44
1.0
  0
POINT
  5
9FA
330
70F
100
AcDbEntity
  8
Defpoints
 62
     0
100
AcDbPoint
 10
0.0
 20
267.0
 30
0.0
  0
POINT
  5
9FB
330
70F
100
AcDbEntity
  8
Defpoints
 62
     0
100
AcDbPoint
 10
-172.0
 20
267.0
 30
0.0
  0
POINT
  5
9FC
330
70F
100
AcDbEntity
  8
Defpoints
 62
     0
100
AcDbPoint
 10
-172.0
 20
219.7512321095846
 30
0.0
  0
ENDBLK
  5
71B
330
70F
100
AcDbEntity
  8
0
100
AcDbBlockEnd
  0
ENDSEC
  0
SECTION
  2
ENTITIES
  0
LINE
  5
FD
102
{ACAD_REACTORS
330
696
330
6BF
330
6D9
330
6F3
330
70D
330
727
102
}
330
1F
100
AcDbEntity
  8
Deck profile
  6
HIDDEN2
100
AcDbLine
 10
0.0
 20
267.0
 30
0.0
 11
-206.4999999999999
 21
267.0
 31
0.0
  0
SPLINE
  5
105
102
{ACAD_REACTORS
330
696
330
6BF
102
}
330
1F
100
AcDbEntity
  8
Deck profile
100
AcDbSpline
210
0.0
220
0.0
230
1.0
 70
     8
 71
     3
 72
    12
 73
     8
 74
     6
 42
0.0000000001
 43
0.0000000001
 44
0.0000000001
 40
0.0
 40
0.0
 40
0.0
 40
0.0
 40
50.03998401278721
 40
100.2893621183916
 40
150.8487331587833
 40
173.4097615041403
 40
208.6127443323042
 40
208.6127443323042
 40
208.6127443323042
 40
208.6127443323042
 10
0.0
 20
293.5
 30
0.0
 10
-16.68424240916015
 20
293.0734800297383
 30
0.0
 10
-50.12254303323124
 20
292.2186553012299
 30
0.0
 10
-100.0996948335312
 20
286.5801700567713
 30
0.0
 10
-140.9877073778053
 20
281.51685968317
 30
0.0
 10
-176.0613256454789
 20
272.8330204100951
 30
0.0
 10
-194.9740585395838
 20
269.2087378379598
 30
0.0
 10
-206.4999999999999
 20
267.0
 30
0.0
 11
0.0
 21
293.5
 31
0.0
 11
-50.0
 21
291.5
 31
0.0
 11
-100.0
 21
286.5
 31
0.0
 11
-150.0
 21
279.0
 31
0.0
 11
-172.0
 21
274.0
 31
0.0
 11
-206.4999999999999
 21
267.0
 31
0.0
  0
DIMENSION
  5
627
330
1F
100
AcDbEntity
  8
Dimensions
100
AcDbDimension
  2
*D1
 10
-172.0
 20
274.0
 30
0.0
 11
-172.0
 21
291.7842480926095
 31
0.0
 70
   160
 71
     5
 42
7.0
  3
Copy of ISO-25
100
AcDbAlignedDimension
 13
-172.0
 23
267.0
 33
0.0
 14
-172.0
 24
274.0
 34
0.0
 50
90.0
100
AcDbRotatedDimension
  0
DIMENSION
  5
643
330
1F
100
AcDbEntity
  8
Dimensions
100
AcDbDimension
  2
*D2
 10
-100.0
 20
286.5
 30
0.0
 11
-100.0
 21
305.5289948042531
 31
0.0
 70
   160
 71
     5
 42
19.5
  3
Copy of ISO-25
100
AcDbAlignedDimension
 13
-100.0
 23
267.0
 33
0.0
 14
-100.0
 24
286.5
 34
0.0
 50
90.0
100
AcDbRotatedDimension
  0
DIMENSION
  5
65F
330
1F
100
AcDbEntity
  8
Dimensions
100
AcDbDimension
  2
*D3
 10
-50.0
 20
291.5
 30
0.0
 11
-50.00000000000005
 21
312.6028067098159
 31
0.0
 70
   160
 71
     5
 42
24.5
  3
Copy of ISO-25
100
AcDbAlignedDimension
 13
-50.0
 23
267.0
 33
0.0
 14
-50.0
 24
291.5
 34
0.0
 50
90.0
100
AcDbRotatedDimension
  0
DIMENSION
  5
67B
102
{ACAD_XDICTIONARY
360
68A
102
}
102
{ACAD_REACTORS
330
696
102
}
330
1F
100
AcDbEntity
  8
Dimensions
100
AcDbDimension
  2
*D4
 10
-0.000000000000002
 20
293.5
 30
0.0
 11
-0.000000000000048
 21
313.6127632397852
 31
0.0
 70
   160
 71
     5
 42
26.5
  3
Copy of ISO-25
100
AcDbAlignedDimension
 13
0.0
 23
267.0
 33
0.0
 14
0.0
 24
293.5
 34
0.0
 50
90.0
100
AcDbRotatedDimension
1001
ACAD
1000
DSTYLE
1002
{
1070
   284
1070
     8
1070
   272
1070
     0
1070
   283
1070
     1
1070
    47
1040
5.0
1070
    48
1040
5.000000005
1070
   147
1040
5.0
1070
    72
1070
     0
1070
    71
1070
     1
1002
}
  0
DIMENSION
  5
697
330
1F
100
AcDbEntity
  8
Dimensions
100
AcDbDimension
  2
*D5
 10
-150.0
 20
279.0
 30
0.0
 11
-150.0
 21
296.5157384323472
 31
0.0
 70
   160
 71
     5
 42
12.0
  3
Copy of ISO-25
100
AcDbAlignedDimension
 13
-150.0
 23
267.0
 33
0.0
 14
-150.0
 24
279.0
 34
0.0
 50
90.0
100
AcDbRotatedDimension
  0
DIMENSION
  5
6A6
102
{ACAD_XDICTIONARY
360
6B4
102
}
102
{ACAD_REACTORS
330
6BF
102
}
330
1F
100
AcDbEntity
  8
Dimensions
100
AcDbDimension
  2
*D6
 10
-206.4999999999999
 20
209.8710710755225
 30
0.0
 11
-103.2499999999999
 21
209.8710710755225
 31
0.0
 70
   160
 71
     5
 42
206.4999999999999
  3
Copy of ISO-25
100
AcDbAlignedDimension
 13
0.0
 23
267.0
 33
0.0
 14
-206.4999999999999
 24
267.0
 34
0.0
100
AcDbRotatedDimension
  0
DIMENSION
  5
6C0
102
{ACAD_XDICTIONARY
360
6CE
102
}
102
{ACAD_REACTORS
330
6D9
102
}
330
1F
100
AcDbEntity
  8
Dimensions
100
AcDbDimension
  2
*D7
 10
-50.0
 20
248.2689700554582
 30
0.0
 11
-26.15145360725227
 21
248.2689700554582
 31
0.0
 70
   160
 71
     5
 42
50.0
  3
Copy of ISO-25
100
AcDbAlignedDimension
 13
0.0
 23
267.0
 33
0.0
 14
-50.0
 24
267.0
 34
0.0
100
AcDbRotatedDimension
  0
DIMENSION
  5
6DA
102
{ACAD_XDICTIONARY
360
6E8
102
}
102
{ACAD_REACTORS
330
6F3
102
}
330
1F
100
AcDbEntity
  8
Dimensions
100
AcDbDimension
  2
*D8
 10
-100.0
 20
238.8379067354917
 30
0.0
 11
-50.0
 21
238.8379067354917
 31
0.0
 70
   160
 71
     5
 42
100.0
  3
Copy of ISO-25
100
AcDbAlignedDimension
 13
0.0
 23
267.0
 33
0.0
 14
-100.0
 24
267.0
 34
0.0
100
AcDbRotatedDimension
  0
DIMENSION
  5
6F4
102
{ACAD_XDICTIONARY
360
702
102
}
102
{ACAD_REACTORS
330
70D
102
}
330
1F
100
AcDbEntity
  8
Dimensions
100
AcDbDimension
  2
*D9
 10
-150.0
 20
228.5086471162602
 30
0.0
 11
-75.0
 21
228.5086471162602
 31
0.0
 70
   160
 71
     5
 42
150.0
  3
Copy of ISO-25
100
AcDbAlignedDimension
 13
0.0
 23
267.0
 33
0.0
 14
-150.0
 24
267.0
 34
0.0
100
AcDbRotatedDimension
  0
DIMENSION
  5
70E
102
{ACAD_XDICTIONARY
360
71C
102
}
102
{ACAD_REACTORS
330
727
102
}
330
1F
100
AcDbEntity
  8
Dimensions
100
AcDbDimension
  2
*D10
 10
-172.0
 20
219.7512321095846
 30
0.0
 11
-86.0
 21
219.7512321095846
 31
0.0
 70
   160
 71
     5
 42
172.0
  3
Copy of ISO-25
100
AcDbAlignedDimension
 13
0.0
 23
267.0
 33
0.0
 14
-172.0
 24
267.0
 34
0.0
100
AcDbRotatedDimension
  0
MTEXT
  5
8AD
330
1F
100
AcDbEntity
  8
Deck profile
100
AcDbMText
 10
-137.6390037986025
 20
197.0626146890389
 30
0.0
 40
5.0
 41
78.32446158034009
 71
     1
 72
     5
  1
{\fTimes New Roman|b0|i0|c0|p18;Deck curvature template}
 73
     1
 44
1.0
  0
LINE
  5
8AF
330
1F
100
AcDbEntity
  8
Deck profile
  6
HIDDEN2
100
AcDbLine
 10
-206.4999999999999
 20
267.0
 30
0.0
 11
-226.5
 21
267.0
 31
0.0
  0
LINE
  5
8B0
330
1F
100
AcDbEntity
  8
Deck profile
  6
HIDDEN2
100
AcDbLine
 10
-226.5
 20
267.0
 30
0.0
 11
-226.5
 21
332.0409810773479
 31
0.0
  0
LINE
  5
8B1
330
1F
100
AcDbEntity
  8
Deck profile
  6
HIDDEN2
100
AcDbLine
 10
-226.5
 20
332.0409810773479
 30
0.0
 11
0.0
 21
332.0409810773479
 31
0.0
  0
MTEXT
  5
98E
330
1F
100
AcDbEntity
  8
Deck profile
100
AcDbMText
 10
-183.0213590567473
 20
325.1329825221205
 30
0.0
 40
3.0
 41
118.6084
 71
     1
 72
     5
  1
{\fTimes New Roman|b0|i0|c0|p18;Remember: hull width is measured \Pfollowing the curvature of the deck,\Pnot a straight line, point to point.}
 73
     1
 44
1.0
  0
ENDSEC
  0
SECTION
  2
OBJECTS
  0
DICTIONARY
  5
C
330
0
100
AcDbDictionary
281
     1
  3
ACAD_GROUP
350
D
  3
ACAD_LAYOUT
350
1A
  3
ACAD_MLINESTYLE
350
17
  3
ACAD_PLOTSETTINGS
350
19
  3
ACAD_PLOTSTYLENAME
350
E
  3
AcDbVariableDictionary
350
78
  0
DICTIONARY
  5
68A
330
67B
100
AcDbDictionary
280
     1
281
     1
  3
ACAD_DIMASSOC
360
696
  0
DICTIONARY
  5
6B4
330
6A6
100
AcDbDictionary
280
     1
281
     1
  3
ACAD_DIMASSOC
360
6BF
  0
DICTIONARY
  5
6CE
330
6C0
100
AcDbDictionary
280
     1
281
     1
  3
ACAD_DIMASSOC
360
6D9
  0
DICTIONARY
  5
6E8
330
6DA
100
AcDbDictionary
280
     1
281
     1
  3
ACAD_DIMASSOC
360
6F3
  0
DICTIONARY
  5
702
330
6F4
100
AcDbDictionary
280
     1
281
     1
  3
ACAD_DIMASSOC
360
70D
  0
DICTIONARY
  5
71C
330
70E
100
AcDbDictionary
280
     1
281
     1
  3
ACAD_DIMASSOC
360
727
  0
DICTIONARY
  5
D
102
{ACAD_REACTORS
330
C
102
}
330
C
100
AcDbDictionary
281
     1
  0
DICTIONARY
  5
1A
102
{ACAD_REACTORS
330
C
102
}
330
C
100
AcDbDictionary
281
     1
  3
Layout1
350
1E
  3
Layout2
350
26
  3
Model
350
22
  0
DICTIONARY
  5
17
102
{ACAD_REACTORS
330
C
102
}
330
C
100
AcDbDictionary
281
     1
  3
Standard
350
18
  0
DICTIONARY
  5
19
102
{ACAD_REACTORS
330
C
102
}
330
C
100
AcDbDictionary
281
     1
  0
ACDBDICTIONARYWDFLT
  5
E
102
{ACAD_REACTORS
330
C
102
}
330
C
100
AcDbDictionary
281
     1
  3
Normal
350
F
100
AcDbDictionaryWithDefault
340
F
  0
DICTIONARY
  5
78
102
{ACAD_REACTORS
330
C
102
}
330
C
100
AcDbDictionary
281
     1
  3
DIMASSOC
350
7A
  3
HIDETEXT
350
79
  0
DIMASSOC
  5
696
102
{ACAD_REACTORS
330
68A
102
}
330
68A
100
AcDbDimAssoc
330
67B
 90
        3
 70
     0
 71
     0
  1
AcDbOsnapPointRef
 72
    13
331
FD
 73
     2
 91
        0
 40
0.0
 10
0.0
 20
267.0
 30
0.0
 75
     0
  1
AcDbOsnapPointRef
 72
    13
331
105
 73
     2
 91
        0
 40
0.0
 10
0.0
 20
293.5
 30
0.0
 75
     0
  0
DIMASSOC
  5
6BF
102
{ACAD_REACTORS
330
6B4
102
}
330
6B4
100
AcDbDimAssoc
330
6A6
 90
        3
 70
     0
 71
     0
  1
AcDbOsnapPointRef
 72
    13
331
FD
 73
     2
 91
        0
 40
0.0
 10
0.0
 20
267.0
 30
0.0
 75
     0
  1
AcDbOsnapPointRef
 72
     1
331
105
 73
     2
 91
        0
 40
208.6127443323042
 10
-206.4999999999999
 20
267.0
 30
0.0
 75
     0
  0
DIMASSOC
  5
6D9
102
{ACAD_REACTORS
330
6CE
102
}
330
6CE
100
AcDbDimAssoc
330
6C0
 90
        1
 70
     0
 71
     0
  1
AcDbOsnapPointRef
 72
    13
331
FD
 73
     2
 91
        0
 40
0.0
 10
0.0
 20
267.0
 30
0.0
 75
     0
  0
DIMASSOC
  5
6F3
102
{ACAD_REACTORS
330
6E8
102
}
330
6E8
100
AcDbDimAssoc
330
6DA
 90
        1
 70
     0
 71
     0
  1
AcDbOsnapPointRef
 72
    13
331
FD
 73
     2
 91
        0
 40
0.0
 10
0.0
 20
267.0
 30
0.0
 75
     0
  0
DIMASSOC
  5
70D
102
{ACAD_REACTORS
330
702
102
}
330
702
100
AcDbDimAssoc
330
6F4
 90
        1
 70
     0
 71
     0
  1
AcDbOsnapPointRef
 72
    13
331
FD
 73
     2
 91
        0
 40
0.0
 10
0.0
 20
267.0
 30
0.0
 75
     0
  0
DIMASSOC
  5
727
102
{ACAD_REACTORS
330
71C
102
}
330
71C
100
AcDbDimAssoc
330
70E
 90
        1
 70
     0
 71
     0
  1
AcDbOsnapPointRef
 72
    13
331
FD
 73
     2
 91
        0
 40
0.0
 10
0.0
 20
267.0
 30
0.0
 75
     0
  0
LAYOUT
  5
1E
102
{ACAD_REACTORS
330
1A
102
}
330
1A
100
AcDbPlotSettings
  1

  2
Canon MP160 Printer
  4

  6

 40
0.0
 41
0.0
 42
0.0
 43
0.0
 44
0.0
 45
0.0
 46
0.0
 47
0.0
 48
0.0
 49
0.0
140
0.0
141
0.0
142
1.0
143
1.0
 70
   688
 72
     0
 73
     0
 74
     5
  7

 75
    16
147
1.0
148
0.0
149
0.0
100
AcDbLayout
  1
Layout1
 70
     1
 71
     1
 10
0.0
 20
0.0
 11
420.0
 21
297.0
 12
0.0
 22
0.0
 32
0.0
 14
1.000000000000000E+20
 24
1.000000000000000E+20
 34
1.000000000000000E+20
 15
-1.000000000000000E+20
 25
-1.000000000000000E+20
 35
-1.000000000000000E+20
146
0.0
 13
0.0
 23
0.0
 33
0.0
 16
1.0
 26
0.0
 36
0.0
 17
0.0
 27
1.0
 37
0.0
 76
     0
330
1B
  0
LAYOUT
  5
26
102
{ACAD_REACTORS
330
1A
102
}
330
1A
100
AcDbPlotSettings
  1

  2
Canon MP160 Printer
  4

  6

 40
0.0
 41
0.0
 42
0.0
 43
0.0
 44
0.0
 45
0.0
 46
0.0
 47
0.0
 48
0.0
 49
0.0
140
0.0
141
0.0
142
1.0
143
1.0
 70
   688
 72
     0
 73
     0
 74
     5
  7

 75
    16
147
1.0
148
0.0
149
0.0
100
AcDbLayout
  1
Layout2
 70
     1
 71
     2
 10
0.0
 20
0.0
 11
12.0
 21
9.0
 12
0.0
 22
0.0
 32
0.0
 14
0.0
 24
0.0
 34
0.0
 15
0.0
 25
0.0
 35
0.0
146
0.0
 13
0.0
 23
0.0
 33
0.0
 16
1.0
 26
0.0
 36
0.0
 17
0.0
 27
1.0
 37
0.0
 76
     0
330
23
  0
LAYOUT
  5
22
102
{ACAD_REACTORS
330
1A
102
}
330
1A
100
AcDbPlotSettings
  1

  2
Canon MP160 Printer
  4
A4
  6

 40
4.180416584014892
 41
5.83141803741455
 42
4.180404663085937
 43
3.757080078125
 44
209.9733276367187
 45
296.9683227539062
 46
0.0
 47
0.0
 48
-256.5456497896379
 49
164.5071491618414
140
15.34165156603444
141
351.4010301145061
142
1.0
143
0.9460904282261644
 70
 11952
 72
     1
 73
     1
 74
     4
  7

 75
     0
147
1.05698141548151
148
256.5456497896379
149
-164.5071491618414
100
AcDbLayout
  1
Model
 70
     1
 71
     0
 10
0.0
 20
0.0
 11
12.0
 21
9.0
 12
0.0
 22
0.0
 32
0.0
 14
0.0
 24
0.0
 34
0.0
 15
0.0
 25
0.0
 35
0.0
146
0.0
 13
0.0
 23
0.0
 33
0.0
 16
1.0
 26
0.0
 36
0.0
 17
0.0
 27
1.0
 37
0.0
 76
     0
330
1F
  0
MLINESTYLE
  5
18
102
{ACAD_REACTORS
330
17
102
}
330
17
100
AcDbMlineStyle
  2
STANDARD
 70
     0
  3

 62
   256
 51
90.0
 52
90.0
 71
     2
 49
0.5
 62
   256
  6
BYLAYER
 49
-0.5
 62
   256
  6
BYLAYER
  0
ACDBPLACEHOLDER
  5
F
102
{ACAD_REACTORS
330
E
102
}
330
E
  0
DICTIONARYVAR
  5
7A
102
{ACAD_REACTORS
330
78
102
}
330
78
100
DictionaryVariables
280
     0
  1
2
  0
DICTIONARYVAR
  5
79
102
{ACAD_REACTORS
330
78
102
}
330
78
100
DictionaryVariables
280
     0
  1
1
  0
ENDSEC
  0
EOF
